  0
SECTION
  2
HEADER
  9
$ACADVER
  1
AC1015
  9
$ACADMAINTVER
 70
     6
  9
$DWGCODEPAGE
  3
ANSI_932
  9
$INSBASE
 10
0.0
 20
0.0
 30
0.0
  9
$EXTMIN
 10
-9784.175513041375
 20
-13559.92569053764
 30
-144.399
  9
$EXTMAX
 10
9856.888876307492
 20
13743.88888888889
 30
144.399
  9
$LIMMIN
 10
0.0
 20
0.0
  9
$LIMMAX
 10
12.0
 20
9.0
  9
$ORTHOMODE
 70
     0
  9
$REGENMODE
 70
     1
  9
$FILLMODE
 70
     1
  9
$QTEXTMODE
 70
     0
  9
$MIRRTEXT
 70
     1
  9
$LTSCALE
 40
508.0
  9
$ATTMODE
 70
     1
  9
$TEXTSIZE
 40
0.2
  9
$TRACEWID
 40
1.0
  9
$TEXTSTYLE
  7
STANDARD
  9
$CLAYER
  8
一般
  9
$CELTYPE
  6
ByLayer
  9
$CECOLOR
 62
   256
  9
$CELTSCALE
 40
1.0
  9
$DISPSILH
 70
     0
  9
$DIMSCALE
 40
1.0
  9
$DIMASZ
 40
317.5
  9
$DIMEXO
 40
158.75
  9
$DIMDLI
 40
10.16
  9
$DIMRND
 40
0.0
  9
$DIMDLE
 40
158.75
  9
$DIMEXE
 40
317.5
  9
$DIMTP
 40
0.0
  9
$DIMTM
 40
0.0
  9
$DIMTXT
 40
194.0277777777778
  9
$DIMCEN
 40
0.0
  9
$DIMTSZ
 40
0.0
  9
$DIMTOL
 70
     0
  9
$DIMLIM
 70
     0
  9
$DIMTIH
 70
     0
  9
$DIMTOH
 70
     0
  9
$DIMSE1
 70
     0
  9
$DIMSE2
 70
     0
  9
$DIMTAD
 70
     1
  9
$DIMZIN
 70
     8
  9
$DIMBLK
  1
VW_SLASH
  9
$DIMASO
 70
     1
  9
$DIMSHO
 70
     1
  9
$DIMPOST
  1
<>
  9
$DIMAPOST
  1
[]
  9
$DIMALT
 70
     0
  9
$DIMALTD
 70
     2
  9
$DIMALTF
 40
1.0
  9
$DIMLFAC
 40
1.0
  9
$DIMTOFL
 70
     1
  9
$DIMTVP
 40
0.0
  9
$DIMTIX
 70
     1
  9
$DIMSOXD
 70
     0
  9
$DIMSAH
 70
     0
  9
$DIMBLK1
  1
VW_SLASH
  9
$DIMBLK2
  1
VW_SLASH
  9
$DIMSTYLE
  2
Arch
  9
$DIMCLRD
 70
     0
  9
$DIMCLRE
 70
     0
  9
$DIMCLRT
 70
     0
  9
$DIMTFAC
 40
1.0
  9
$DIMGAP
 40
1.5875
  9
$DIMJUST
 70
     0
  9
$DIMSD1
 70
     0
  9
$DIMSD2
 70
     0
  9
$DIMTOLJ
 70
     1
  9
$DIMTZIN
 70
     8
  9
$DIMALTZ
 70
     8
  9
$DIMALTTZ
 70
     8
  9
$DIMUPT
 70
     0
  9
$DIMDEC
 70
     2
  9
$DIMTDEC
 70
     2
  9
$DIMALTU
 70
     2
  9
$DIMALTTD
 70
     2
  9
$DIMTXSTY
  7
ＭＳ Ｐゴシック
  9
$DIMAUNIT
 70
     0
  9
$DIMADEC
 70
     0
  9
$DIMALTRND
 40
0.0
  9
$DIMAZIN
 70
     0
  9
$DIMDSEP
 70
    46
  9
$DIMATFIT
 70
     0
  9
$DIMFRAC
 70
     2
  9
$DIMLDRBLK
  1
VW_FILLEDARROW
  9
$DIMLUNIT
 70
     2
  9
$DIMLWD
 70
    -2
  9
$DIMLWE
 70
    -2
  9
$DIMTMOVE
 70
     0
  9
$LUNITS
 70
     2
  9
$LUPREC
 70
     4
  9
$SKETCHINC
 40
0.1
  9
$FILLETRAD
 40
0.5
  9
$AUNITS
 70
     0
  9
$AUPREC
 70
     0
  9
$MENU
  1
.
  9
$ELEVATION
 40
0.0
  9
$PELEVATION
 40
0.0
  9
$THICKNESS
 40
0.0
  9
$LIMCHECK
 70
     0
  9
$CHAMFERA
 40
0.5
  9
$CHAMFERB
 40
0.5
  9
$CHAMFERC
 40
1.0
  9
$CHAMFERD
 40
0.0
  9
$SKPOLY
 70
     0
  9
$TDCREATE
 40
2456350.426474005
  9
$TDUCREATE
 40
2456350.051474005
  9
$TDUPDATE
 40
2456350.426474537
  9
$TDUUPDATE
 40
2456350.051474537
  9
$TDINDWG
 40
0.0000000116
  9
$TDUSRTIMER
 40
0.0000000116
  9
$USRTIMER
 70
     1
  9
$ANGBASE
 50
0.0
  9
$ANGDIR
 70
     0
  9
$PDMODE
 70
     1
  9
$PDSIZE
 40
-2.0
  9
$PLINEWID
 40
0.0
  9
$SPLFRAME
 70
     0
  9
$SPLINETYPE
 70
     6
  9
$SPLINESEGS
 70
     8
  9
$HANDSEED
  5
426
  9
$SURFTAB1
 70
     6
  9
$SURFTAB2
 70
     6
  9
$SURFTYPE
 70
     6
  9
$SURFU
 70
     6
  9
$SURFV
 70
     6
  9
$UCSBASE
  2

  9
$UCSNAME
  2

  9
$UCSORG
 10
0.0
 20
0.0
 30
0.0
  9
$UCSXDIR
 10
1.0
 20
0.0
 30
0.0
  9
$UCSYDIR
 10
0.0
 20
1.0
 30
0.0
  9
$UCSORTHOREF
  2

  9
$UCSORTHOVIEW
 70
     0
  9
$UCSORGTOP
 10
0.0
 20
0.0
 30
0.0
  9
$UCSORGBOTTOM
 10
0.0
 20
0.0
 30
0.0
  9
$UCSORGLEFT
 10
0.0
 20
0.0
 30
0.0
  9
$UCSORGRIGHT
 10
0.0
 20
0.0
 30
0.0
  9
$UCSORGFRONT
 10
0.0
 20
0.0
 30
0.0
  9
$UCSORGBACK
 10
0.0
 20
0.0
 30
0.0
  9
$PUCSBASE
  2

  9
$PUCSNAME
  2

  9
$PUCSORG
 10
0.0
 20
0.0
 30
0.0
  9
$PUCSXDIR
 10
1.0
 20
0.0
 30
0.0
  9
$PUCSYDIR
 10
0.0
 20
1.0
 30
0.0
  9
$PUCSORTHOREF
  2

  9
$PUCSORTHOVIEW
 70
     0
  9
$PUCSORGTOP
 10
0.0
 20
0.0
 30
0.0
  9
$PUCSORGBOTTOM
 10
0.0
 20
0.0
 30
0.0
  9
$PUCSORGLEFT
 10
0.0
 20
0.0
 30
0.0
  9
$PUCSORGRIGHT
 10
0.0
 20
0.0
 30
0.0
  9
$PUCSORGFRONT
 10
0.0
 20
0.0
 30
0.0
  9
$PUCSORGBACK
 10
0.0
 20
0.0
 30
0.0
  9
$USERI1
 70
     0
  9
$USERI2
 70
     0
  9
$USERI3
 70
     0
  9
$USERI4
 70
     0
  9
$USERI5
 70
     0
  9
$USERR1
 40
0.0
  9
$USERR2
 40
0.0
  9
$USERR3
 40
0.0
  9
$USERR4
 40
0.0
  9
$USERR5
 40
0.0
  9
$WORLDVIEW
 70
     1
  9
$SHADEDGE
 70
     3
  9
$SHADEDIF
 70
    70
  9
$TILEMODE
 70
     1
  9
$MAXACTVP
 70
    64
  9
$PINSBASE
 10
0.0
 20
0.0
 30
0.0
  9
$PLIMCHECK
 70
     0
  9
$PEXTMIN
 10
1.000000000000000E+20
 20
1.000000000000000E+20
 30
1.000000000000000E+20
  9
$PEXTMAX
 10
-1.000000000000000E+20
 20
-1.000000000000000E+20
 30
-1.000000000000000E+20
  9
$PLIMMIN
 10
-20.0
 20
-7.5
  9
$PLIMMAX
 10
277.0
 20
202.5
  9
$UNITMODE
 70
     0
  9
$VISRETAIN
 70
     1
  9
$PLINEGEN
 70
     0
  9
$PSLTSCALE
 70
     1
  9
$TREEDEPTH
 70
  3020
  9
$CMLSTYLE
  2
Standard
  9
$CMLJUST
 70
     0
  9
$CMLSCALE
 40
1.0
  9
$PROXYGRAPHICS
 70
     1
  9
$MEASUREMENT
 70
     1
  9
$CELWEIGHT
370
    -1
  9
$ENDCAPS
280
     0
  9
$JOINSTYLE
280
     0
  9
$LWDISPLAY
290
     1
  9
$INSUNITS
 70
     4
  9
$HYPERLINKBASE
  1

  9
$STYLESHEET
  1

  9
$XEDIT
290
     1
  9
$CEPSNTYPE
380
     0
  9
$PSTYLEMODE
290
     1
  9
$FINGERPRINTGUID
  2
{F1487FA7-51CC-43FC-9D6B-AE74CE1CE1CB}
  9
$VERSIONGUID
  2
{FAEB1C32-E019-11D5-929B-00C0DF256EC4}
  9
$EXTNAMES
290
     1
  9
$PSVPSCALE
 40
0.0
  9
$OLESTARTUP
290
     0
  0
ENDSEC
  0
SECTION
  2
CLASSES
  0
CLASS
  1
ACDBDICTIONARYWDFLT
  2
AcDbDictionaryWithDefault
  3
ObjectDBX Classes
 90
        0
280
     0
281
     0
  0
CLASS
  1
VISUALSTYLE
  2
AcDbVisualStyle
  3
ObjectDBX Classes
 90
     4095
280
     0
281
     0
  0
CLASS
  1
WIPEOUTVARIABLES
  2
AcDbWipeoutVariables
  3
WipeOut|AutoCAD Express Tool|expresstools@autodesk.com
 90
        0
280
     0
281
     0
  0
CLASS
  1
WIPEOUT
  2
AcDbWipeout
  3
WipeOut|AutoCAD Express Tool|expresstools@autodesk.com
 90
      127
280
     0
281
     1
  0
CLASS
  1
SCALE
  2
AcDbScale
  3
ObjectDBX Classes
 90
     1153
280
     0
281
     0
  0
CLASS
  1
DICTIONARYVAR
  2
AcDbDictionaryVar
  3
ObjectDBX Classes
 90
        0
280
     0
281
     0
  0
CLASS
  1
ACDBPLACEHOLDER
  2
AcDbPlaceHolder
  3
ObjectDBX Classes
 90
        0
280
     0
281
     0
  0
CLASS
  1
LAYOUT
  2
AcDbLayout
  3
ObjectDBX Classes
 90
        0
280
     0
281
     0
  0
ENDSEC
  0
SECTION
  2
TABLES
  0
TABLE
  2
VPORT
  5
8
330
0
100
AcDbSymbolTable
 70
     1
  0
VPORT
  5
29
330
8
100
AcDbSymbolTableRecord
100
AcDbViewportTableRecord
  2
*Active
 70
     0
 10
0.0
 20
0.0
 11
1.0
 21
1.0
 12
36.35668163305854
 22
91.98159917562407
 13
0.0
 23
0.0
 14
0.5
 24
0.5
 15
0.5
 25
0.5
 16
0.0
 26
0.0
 36
1.0
 17
0.0
 27
0.0
 37
0.0
 40
27303.81457942653
 41
0.0006503397795938
 42
2000.0
 43
0.0
 44
0.0
 50
0.0
 51
0.0
 71
     0
 72
   100
 73
     1
 74
     3
 75
     0
 76
     0
 77
     0
 78
     0
281
     0
 65
     1
110
0.0
120
0.0
130
0.0
111
1.0
121
0.0
131
0.0
112
0.0
122
1.0
132
0.0
 79
     0
146
0.0
  0
ENDTAB
  0
TABLE
  2
LTYPE
  5
5
330
0
100
AcDbSymbolTable
 70
    11
  0
LTYPE
  5
14
330
5
100
AcDbSymbolTableRecord
100
AcDbLinetypeTableRecord
  2
ByBlock
 70
     0
  3

 72
    65
 73
     0
 40
0.0
  0
LTYPE
  5
15
330
5
100
AcDbSymbolTableRecord
100
AcDbLinetypeTableRecord
  2
ByLayer
 70
     0
  3

 72
    65
 73
     0
 40
0.0
  0
LTYPE
  5
16
330
5
100
AcDbSymbolTableRecord
100
AcDbLinetypeTableRecord
  2
Continuous
 70
     0
  3
Solid line
 72
    65
 73
     0
 40
0.0
  0
LTYPE
  5
6A
330
5
100
AcDbSymbolTableRecord
100
AcDbLinetypeTableRecord
  2
破線の種類-1
 70
     0
  3

 72
    65
 73
     2
 40
0.4166412353515625
 49
0.208282470703125
 74
     0
 49
-0.2083587646484375
 74
     0
  0
LTYPE
  5
6B
330
5
100
AcDbSymbolTableRecord
100
AcDbLinetypeTableRecord
  2
破線の種類-2
 70
     0
  3

 72
    65
 73
     2
 40
0.694427490234375
 49
0.4860687255859375
 74
     0
 49
-0.2083587646484375
 74
     0
  0
LTYPE
  5
6C
330
5
100
AcDbSymbolTableRecord
100
AcDbLinetypeTableRecord
  2
破線の種類-3
 70
     0
  3

 72
    65
 73
     2
 40
1.25
 49
1.041641235351562
 74
     0
 49
-0.2083587646484375
 74
     0
  0
LTYPE
  5
6D
330
5
100
AcDbSymbolTableRecord
100
AcDbLinetypeTableRecord
  2
破線の種類-4
 70
     0
  3

 72
    65
 73
     2
 40
1.5277099609375
 49
1.319427490234375
 74
     0
 49
-0.208282470703125
 74
     0
  0
LTYPE
  5
6E
330
5
100
AcDbSymbolTableRecord
100
AcDbLinetypeTableRecord
  2
破線の種類-5
 70
     0
  3

 72
    65
 73
     2
 40
0.208282470703125
 49
0.069427490234375
 74
     0
 49
-0.13885498046875
 74
     0
  0
LTYPE
  5
6F
330
5
100
AcDbSymbolTableRecord
100
AcDbLinetypeTableRecord
  2
破線の種類-6
 70
     0
  3

 72
    65
 73
     4
 40
1.041641235351562
 49
0.625
 74
     0
 49
-0.208282470703125
 74
     0
 49
0.069427490234375
 74
     0
 49
-0.1389312744140625
 74
     0
  0
LTYPE
  5
70
330
5
100
AcDbSymbolTableRecord
100
AcDbLinetypeTableRecord
  2
破線の種類-7
 70
     0
  3

 72
    65
 73
     6
 40
1.875
 49
0.625
 74
     0
 49
-0.208282470703125
 74
     0
 49
0.625
 74
     0
 49
-0.2083587646484375
 74
     0
 49
0.069427490234375
 74
     0
 49
-0.1389312744140625
 74
     0
  0
LTYPE
  5
71
330
5
100
AcDbSymbolTableRecord
100
AcDbLinetypeTableRecord
  2
破線の種類-8
 70
     0
  3

 72
    65
 73
     6
 40
1.25
 49
0.625
 74
     0
 49
-0.208282470703125
 74
     0
 49
0.069427490234375
 74
     0
 49
-0.1389312744140625
 74
     0
 49
0.069427490234375
 74
     0
 49
-0.1389312744140625
 74
     0
  0
LTYPE
  5
72
330
5
100
AcDbSymbolTableRecord
100
AcDbLinetypeTableRecord
  2
破線の種類-9
 70
     0
  3

 72
    65
 73
     4
 40
5.0
 49
3.75
 74
     0
 49
-0.2777862548828125
 74
     0
 49
0.694427490234375
 74
     0
 49
-0.2777862548828125
 74
     0
  0
LTYPE
  5
73
330
5
100
AcDbSymbolTableRecord
100
AcDbLinetypeTableRecord
  2
破線の種類-10
 70
     0
  3

 72
    65
 73
     6
 40
5.9375
 49
3.75
 74
     0
 49
-0.2777862548828125
 74
     0
 49
0.694427490234375
 74
     0
 49
-0.2777862548828125
 74
     0
 49
0.625
 74
     0
 49
-0.3125
 74
     0
  0
ENDTAB
  0
TABLE
  2
LAYER
  5
2
330
0
100
AcDbSymbolTable
 70
     5
  0
LAYER
  5
10
330
2
100
AcDbSymbolTableRecord
100
AcDbLayerTableRecord
  2
0
 70
     0
 62
     7
  6
Continuous
370
    18
390
F
  0
LAYER
  5
74
330
2
100
AcDbSymbolTableRecord
100
AcDbLayerTableRecord
  2
一般
 70
     0
 62
     7
  6
Continuous
370
     5
390
F
  0
LAYER
  5
75
330
2
100
AcDbSymbolTableRecord
100
AcDbLayerTableRecord
  2
寸法
 70
     0
 62
     7
  6
Continuous
370
     5
390
F
  0
LAYER
  5
76
330
2
100
AcDbSymbolTableRecord
100
AcDbLayerTableRecord
  2
_0-0_
 70
     0
 62
     7
  6
Continuous
370
    18
390
F
  0
LAYER
  5
77
330
2
100
AcDbSymbolTableRecord
100
AcDbLayerTableRecord
  2
Defpoints
 70
     0
 62
     7
  6
Continuous
290
     0
370
    -3
390
F
  0
ENDTAB
  0
TABLE
  2
STYLE
  5
3
330
0
100
AcDbSymbolTable
 70
     2
  0
STYLE
  5
11
330
3
100
AcDbSymbolTableRecord
100
AcDbTextStyleTableRecord
  2
STANDARD
 70
     0
 40
0.0
 41
1.0
 50
0.0
 71
     0
 42
0.2
  3
txt
  4
BIGFONT.SHX
  0
STYLE
  5
69
330
3
100
AcDbSymbolTableRecord
100
AcDbTextStyleTableRecord
  2
ＭＳ Ｐゴシック
 70
     0
 40
0.0
 41
1.0
 50
0.0
 71
     0
 42
0.0
  3
msgothic_0.ttc
  4
ＭＳ Ｐゴシック
1001
ACAD
1000
ＭＳ Ｐゴシック
1071
        0
  0
ENDTAB
  0
TABLE
  2
VIEW
  5
6
330
0
100
AcDbSymbolTable
 70
     0
  0
ENDTAB
  0
TABLE
  2
UCS
  5
7
330
0
100
AcDbSymbolTable
 70
     0
  0
ENDTAB
  0
TABLE
  2
APPID
  5
9
330
0
100
AcDbSymbolTable
 70
     3
  0
APPID
  5
12
330
9
100
AcDbSymbolTableRecord
100
AcDbRegAppTableRecord
  2
ACAD
 70
     0
  0
APPID
  5
424
330
9
100
AcDbSymbolTableRecord
100
AcDbRegAppTableRecord
  2
ACAD_DSTYLE_DIMEXT_ENABLED
 70
     0
  0
APPID
  5
425
330
9
100
AcDbSymbolTableRecord
100
AcDbRegAppTableRecord
  2
ACAD_DSTYLE_DIMEXT_LENGTH
 70
     0
  0
ENDTAB
  0
TABLE
  2
DIMSTYLE
  5
A
330
0
100
AcDbSymbolTable
 70
     3
100
AcDbDimStyleTable
  0
DIMSTYLE
105
27
330
A
100
AcDbSymbolTableRecord
100
AcDbDimStyleTableRecord
  2
Standard
 70
     0
340
11
  0
DIMSTYLE
105
78
330
A
100
AcDbSymbolTableRecord
100
AcDbDimStyleTableRecord
  2
Arch
 70
     0
  3
<>
  4
[]
 41
317.5
 42
158.75
 43
10.16
 44
317.5
 46
158.75
 73
     0
 74
     0
 77
     1
 78
     8
140
194.0277777777778
141
0.0
143
1.0
147
1.5875
172
     1
174
     1
271
     2
272
     2
276
     2
284
     8
285
     8
286
     8
289
     0
340
69
341
82
342
79
343
79
344
79
  0
DIMSTYLE
105
8C
102
{ACAD_REACTORS
330
2A8
330
2A9
330
2AA
330
2AB
330
2AC
330
2AD
330
2AE
330
3CB
330
3EF
330
41E
102
}
330
A
100
AcDbSymbolTableRecord
100
AcDbDimStyleTableRecord
  2
SIA
 70
     0
  3
<>
  4
[]
 41
317.5
 42
199.999999999962
 43
10.00000000000064
 44
300.00000000007
 46
100.000000000108
 73
     0
 74
     0
 77
     1
 78
     8
140
194.0277777777778
141
0.0
143
1.0
147
3.0000000000007
172
     1
174
     1
271
     2
272
     2
276
     2
284
     8
285
     8
286
     8
289
     0
340
69
341
82
342
79
343
79
344
79
1001
ACAD_DSTYLE_DIMEXT_ENABLED
1070
   383
1070
     1
1001
ACAD_DSTYLE_DIMEXT_LENGTH
1070
   378
1040
1000.000000000064
  0
ENDTAB
  0
TABLE
  2
BLOCK_RECORD
  5
1
330
0
100
AcDbSymbolTable
 70
    18
  0
BLOCK_RECORD
  5
1F
330
1
100
AcDbSymbolTableRecord
100
AcDbBlockTableRecord
  2
*Model_Space
340
22
  0
BLOCK_RECORD
  5
1B
330
1
100
AcDbSymbolTableRecord
100
AcDbBlockTableRecord
  2
*Paper_Space
340
1E
  0
BLOCK_RECORD
  5
3B
330
1
100
AcDbSymbolTableRecord
100
AcDbBlockTableRecord
  2
グループ
340
0
102
{BLKREFS
331
28D
102
}
  0
BLOCK_RECORD
  5
3E
330
1
100
AcDbSymbolTableRecord
100
AcDbBlockTableRecord
  2
*D2
340
0
  0
BLOCK_RECORD
  5
41
330
1
100
AcDbSymbolTableRecord
100
AcDbBlockTableRecord
  2
*D3
340
0
  0
BLOCK_RECORD
  5
44
330
1
100
AcDbSymbolTableRecord
100
AcDbBlockTableRecord
  2
*D4
340
0
  0
BLOCK_RECORD
  5
47
330
1
100
AcDbSymbolTableRecord
100
AcDbBlockTableRecord
  2
*D5
340
0
  0
BLOCK_RECORD
  5
4A
330
1
100
AcDbSymbolTableRecord
100
AcDbBlockTableRecord
  2
*D6
340
0
  0
BLOCK_RECORD
  5
4D
330
1
100
AcDbSymbolTableRecord
100
AcDbBlockTableRecord
  2
*D7
340
0
  0
BLOCK_RECORD
  5
50
330
1
100
AcDbSymbolTableRecord
100
AcDbBlockTableRecord
  2
*D8
340
0
  0
BLOCK_RECORD
  5
53
330
1
100
AcDbSymbolTableRecord
100
AcDbBlockTableRecord
  2
グループ-1
340
0
102
{BLKREFS
331
2C1
102
}
  0
BLOCK_RECORD
  5
56
330
1
100
AcDbSymbolTableRecord
100
AcDbBlockTableRecord
  2
グループ-2
340
0
102
{BLKREFS
331
2C2
102
}
  0
BLOCK_RECORD
  5
59
330
1
100
AcDbSymbolTableRecord
100
AcDbBlockTableRecord
  2
*D11
340
0
  0
BLOCK_RECORD
  5
5C
330
1
100
AcDbSymbolTableRecord
100
AcDbBlockTableRecord
  2
*D12
340
0
  0
BLOCK_RECORD
  5
5F
330
1
100
AcDbSymbolTableRecord
100
AcDbBlockTableRecord
  2
グループ-3
340
0
102
{BLKREFS
331
41A
102
}
  0
BLOCK_RECORD
  5
62
330
1
100
AcDbSymbolTableRecord
100
AcDbBlockTableRecord
  2
グループ-4
340
0
102
{BLKREFS
331
41B
102
}
  0
BLOCK_RECORD
  5
65
330
1
100
AcDbSymbolTableRecord
100
AcDbBlockTableRecord
  2
*D15
340
0
  0
BLOCK_RECORD
  5
79
330
1
100
AcDbSymbolTableRecord
100
AcDbBlockTableRecord
  2
VW_SLASH
340
0
102
{BLKREFS
331
A0
331
9F
331
D4
331
D3
331
E6
331
E5
331
100
331
FC
331
10A
331
109
331
11C
331
11B
331
12E
331
12D
331
1A7
331
1A6
331
1B9
331
1B8
331
221
331
21D
102
}
  0
BLOCK_RECORD
  5
82
330
1
100
AcDbSymbolTableRecord
100
AcDbBlockTableRecord
  2
VW_FILLEDARROW
340
0
  0
ENDTAB
  0
ENDSEC
  0
SECTION
  2
BLOCKS
  0
BLOCK
  5
20
330
1F
100
AcDbEntity
  8
0
100
AcDbBlockBegin
  2
*Model_Space
 70
     0
 10
0.0
 20
0.0
 30
0.0
  3
*Model_Space
  1

  0
ENDBLK
  5
21
330
1F
100
AcDbEntity
  8
0
100
AcDbBlockEnd
  0
BLOCK
  5
1C
330
1B
100
AcDbEntity
 67
     1
  8
0
100
AcDbBlockBegin
  2
*Paper_Space
 70
     0
 10
0.0
 20
0.0
 30
0.0
  3
*Paper_Space
  1

  0
ENDBLK
  5
1D
330
1B
100
AcDbEntity
 67
     1
  8
0
100
AcDbBlockEnd
  0
BLOCK
  5
3C
330
3B
100
AcDbEntity
  8
0
100
AcDbBlockBegin
  2
グループ
 70
     0
 10
0.0
 20
0.0
 30
0.0
  3
グループ
  1

  0
WIPEOUT
  5
8D
330
3B
100
AcDbEntity
  8
一般
  6
Continuous
 62
     7
370
     5
 92
      152
310
98000000040000000C0000000E000000120000000C00000016000000000000C20C00000014000000010000006C000000070000000400000047CB9311D3B1B7407514A3FAF9D8C440000000000000000047CB9311D309BA407514A3FAF9D8C440000000000000000047CB9311D309BA407114A3FAF9ACC34000000000000000
310
0047CB9311D3B1B7407114A3FAF9ACC3400000000000000000
100
AcDbWipeout
 90
        0
 10
6065.824486958625
 20
10073.95296133516
 30
0.0
 11
600.0000000000073
 21
0.0
 31
0.0
 12
0.0
 22
600.0000000000073
 32
0.0
 13
1.0
 23
1.0
340
0
 70
     4
280
     1
281
    50
282
    50
283
     0
360
0
 71
     2
 91
        5
 14
-0.4999999999999982
 24
-0.5
 14
0.4999999999999893
 24
-0.5
 14
0.4999999999999893
 24
0.5
 14
-0.4999999999999982
 24
0.5
 14
-0.4999999999999982
 24
-0.5
  0
POLYLINE
  5
8E
330
3B
100
AcDbEntity
  8
一般
  6
Continuous
 62
     7
370
     5
100
AcDb2dPolyline
 66
     1
 10
0.0
 20
0.0
 30
0.0
 70
     5
 75
     5
  0
VERTEX
  5
8F
330
8E
100
AcDbEntity
  8
一般
  6
Continuous
 62
     7
370
     5
100
AcDbVertex
100
AcDb2dVertex
 10
6065.824486958625
 20
10673.95296133517
 30
0.0
  0
VERTEX
  5
90
330
8E
100
AcDbEntity
  8
一般
  6
Continuous
 62
     7
370
     5
100
AcDbVertex
100
AcDb2dVertex
 10
6665.824486958625
 20
10673.95296133517
 30
0.0
  0
VERTEX
  5
91
330
8E
100
AcDbEntity
  8
一般
  6
Continuous
 62
     7
370
     5
100
AcDbVertex
100
AcDb2dVertex
 10
6665.824486958625
 20
10073.95296133516
 30
0.0
  0
VERTEX
  5
92
330
8E
100
AcDbEntity
  8
一般
  6
Continuous
 62
     7
370
     5
100
AcDbVertex
100
AcDb2dVertex
 10
6065.824486958625
 20
10073.95296133516
 30
0.0
  0
SEQEND
  5
93
330
8E
100
AcDbEntity
  8
一般
  6
Continuous
 62
     7
370
     5
  0
WIPEOUT
  5
94
330
3B
100
AcDbEntity
  8
一般
  6
Continuous
 62
     7
370
     5
 92
      152
310
98000000040000000C0000000E000000120000000C00000016000000000000C20C00000014000000010000006C000000070000000400000046CB9311D3CAB7407514A3FA79CCC440000000000000000045CB9311D3F0B9407514A3FA79CCC440000000000000000045CB9311D3F0B9407114A3FA79B9C34000000000000000
310
0046CB9311D3CAB7407114A3FA79B9C3400000000000000000
100
AcDbWipeout
 90
        0
 10
6090.824486958625
 20
10098.95296133516
 30
0.0
 11
550.0000000000073
 21
0.0
 31
0.0
 12
0.0
 22
550.0000000000073
 32
0.0
 13
1.0
 23
1.0
340
0
 70
     4
280
     1
281
    50
282
    50
283
     0
360
0
 71
     2
 91
        5
 14
-0.5
 24
-0.5
 14
0.4999999999999858
 24
-0.5
 14
0.4999999999999858
 24
0.5
 14
-0.5
 24
0.5
 14
-0.5
 24
-0.5
  0
POLYLINE
  5
95
330
3B
100
AcDbEntity
  8
一般
  6
Continuous
 62
     7
370
     5
100
AcDb2dPolyline
 66
     1
 10
0.0
 20
0.0
 30
0.0
 70
     5
 75
     5
  0
VERTEX
  5
96
330
95
100
AcDbEntity
  8
一般
  6
Continuous
 62
     7
370
     5
100
AcDbVertex
100
AcDb2dVertex
 10
6090.824486958625
 20
10648.95296133517
 30
0.0
  0
VERTEX
  5
97
330
95
100
AcDbEntity
  8
一般
  6
Continuous
 62
     7
370
     5
100
AcDbVertex
100
AcDb2dVertex
 10
6640.824486958625
 20
10648.95296133517
 30
0.0
  0
VERTEX
  5
98
330
95
100
AcDbEntity
  8
一般
  6
Continuous
 62
     7
370
     5
100
AcDbVertex
100
AcDb2dVertex
 10
6640.824486958625
 20
10098.95296133516
 30
0.0
  0
VERTEX
  5
99
330
95
100
AcDbEntity
  8
一般
  6
Continuous
 62
     7
370
     5
100
AcDbVertex
100
AcDb2dVertex
 10
6090.824486958625
 20
10098.95296133516
 30
0.0
  0
SEQEND
  5
9A
330
95
100
AcDbEntity
  8
一般
  6
Continuous
 62
     7
370
     5
  0
ENDBLK
  5
3D
330
3B
100
AcDbEntity
  8
0
100
AcDbBlockEnd
  0
BLOCK
  5
3F
330
3E
100
AcDbEntity
  8
0
100
AcDbBlockBegin
  2
*D2
 70
     1
 10
0.0
 20
0.0
 30
0.0
  3
*D2
  1

  0
LINE
  5
9B
330
3E
100
AcDbEntity
  8
寸法
  6
Continuous
 62
     0
370
    -2
100
AcDbLine
 10
-4634.175513041413
 20
10274.36171387645
 30
0.0
 11
-4334.175513041305
 21
10274.36171387645
 31
0.0
  0
LINE
  5
9C
330
3E
100
AcDbEntity
  8
寸法
  6
Continuous
 62
     0
370
    -2
100
AcDbLine
 10
-4634.175513041413
 20
5874.361713876458
 30
0.0
 11
-4334.175513041305
 21
5874.361713876458
 31
0.0
  0
LINE
  5
9D
330
3E
100
AcDbEntity
  8
寸法
  6
Continuous
 62
     0
370
    -2
100
AcDbLine
 10
-4634.175513041375
 20
9956.861713876451
 30
0.0
 11
-4634.175513041375
 21
8386.270186098678
 31
0.0
  0
LINE
  5
9E
330
3E
100
AcDbEntity
  8
寸法
  6
Continuous
 62
     0
370
    -2
100
AcDbLine
 10
-4634.175513041375
 20
6191.861713876458
 30
0.0
 11
-4634.175513041375
 21
7762.453241654233
 31
0.0
  0
INSERT
  5
9F
330
3E
100
AcDbEntity
  8
寸法
 62
     0
370
    -2
100
AcDbBlockReference
  2
VW_SLASH
 10
-4634.175513041375
 20
10274.36171387645
 30
0.0
 41
317.5
 42
317.5
 43
317.5
 50
90.0
  0
INSERT
  5
A0
330
3E
100
AcDbEntity
  8
寸法
 62
     0
370
    -2
100
AcDbBlockReference
  2
VW_SLASH
 10
-4634.175513041375
 20
5874.361713876458
 30
0.0
 41
317.5
 42
317.5
 43
317.5
 50
270.0
  0
MTEXT
  5
A4
330
3E
100
AcDbEntity
  8
寸法
 62
     0
370
     5
100
AcDbMText
 10
-4634.175513041375
 20
8074.361713876455
 30
0.0
 40
194.0277777777778
 41
0.0
 71
     5
 72
     1
  1
\A1;4400
  7
ＭＳ Ｐゴシック
 11
0.0
 21
1.0
 31
0.0
 73
     1
 44
1.0
  0
POINT
  5
A8
330
3E
100
AcDbEntity
  8
Defpoints
 62
     0
100
AcDbPoint
 10
-4834.175513041375
 20
10274.36171387645
 30
0.0
  0
POINT
  5
A9
330
3E
100
AcDbEntity
  8
Defpoints
 62
     0
100
AcDbPoint
 10
-4834.175513041375
 20
5874.361713876458
 30
0.0
  0
POINT
  5
CC
330
3E
100
AcDbEntity
  8
Defpoints
 62
     0
100
AcDbPoint
 10
-4634.175513041375
 20
5874.361713876458
 30
0.0
  0
ENDBLK
  5
40
330
3E
100
AcDbEntity
  8
0
100
AcDbBlockEnd
  0
BLOCK
  5
42
330
41
100
AcDbEntity
  8
0
100
AcDbBlockBegin
  2
*D3
 70
     1
 10
0.0
 20
0.0
 30
0.0
  3
*D3
  1

  0
LINE
  5
CF
330
41
100
AcDbEntity
  8
寸法
  6
Continuous
 62
     0
370
    -2
100
AcDbLine
 10
-6152.828860988484
 20
9274.361713876448
 30
0.0
 11
-5913.703038370696
 21
9274.361713876448
 31
0.0
  0
LINE
  5
D0
330
41
100
AcDbEntity
  8
寸法
  6
Continuous
 62
     0
370
    -2
100
AcDbLine
 10
-6152.828860988484
 20
5874.361713876458
 30
0.0
 11
-5913.703038370696
 21
5874.361713876458
 31
0.0
  0
LINE
  5
D1
330
41
100
AcDbEntity
  8
寸法
  6
Continuous
 62
     0
370
    -2
100
AcDbLine
 10
-6213.703038370766
 20
8956.861713876448
 30
0.0
 11
-6213.703038370766
 21
7884.038866654229
 31
0.0
  0
LINE
  5
D2
330
41
100
AcDbEntity
  8
寸法
  6
Continuous
 62
     0
370
    -2
100
AcDbLine
 10
-6213.703038370766
 20
6191.861713876458
 30
0.0
 11
-6213.703038370766
 21
7264.684561098675
 31
0.0
  0
INSERT
  5
D3
330
41
100
AcDbEntity
  8
寸法
 62
     0
370
    -2
100
AcDbBlockReference
  2
VW_SLASH
 10
-6213.703038370766
 20
9274.361713876448
 30
0.0
 41
317.5
 42
317.5
 43
317.5
 50
90.0
  0
INSERT
  5
D4
330
41
100
AcDbEntity
  8
寸法
 62
     0
370
    -2
100
AcDbBlockReference
  2
VW_SLASH
 10
-6213.703038370766
 20
5874.361713876458
 30
0.0
 41
317.5
 42
317.5
 43
317.5
 50
270.0
  0
MTEXT
  5
D8
330
41
100
AcDbEntity
  8
寸法
 62
     0
370
     5
100
AcDbMText
 10
-6213.703038370766
 20
7574.361713876453
 30
0.0
 40
194.0277777777778
 41
0.0
 71
     5
 72
     1
  1
\A1;3400
  7
ＭＳ Ｐゴシック
 11
0.0
 21
1.0
 31
0.0
 73
     1
 44
1.0
  0
POINT
  5
DC
330
41
100
AcDbEntity
  8
Defpoints
 62
     0
100
AcDbPoint
 10
-6352.828860988446
 20
9274.361713876448
 30
0.0
  0
POINT
  5
DD
330
41
100
AcDbEntity
  8
Defpoints
 62
     0
100
AcDbPoint
 10
-6352.828860988446
 20
5874.361713876458
 30
0.0
  0
POINT
  5
DE
330
41
100
AcDbEntity
  8
Defpoints
 62
     0
100
AcDbPoint
 10
-6213.703038370766
 20
5874.361713876458
 30
0.0
  0
ENDBLK
  5
43
330
41
100
AcDbEntity
  8
0
100
AcDbBlockEnd
  0
BLOCK
  5
45
330
44
100
AcDbEntity
  8
0
100
AcDbBlockBegin
  2
*D4
 70
     1
 10
0.0
 20
0.0
 30
0.0
  3
*D4
  1

  0
LINE
  5
E1
330
44
100
AcDbEntity
  8
寸法
  6
Continuous
 62
     0
370
    -2
100
AcDbLine
 10
7748.597946310954
 20
10084.36171387645
 30
0.0
 11
8048.597946311063
 21
10084.36171387645
 31
0.0
  0
LINE
  5
E2
330
44
100
AcDbEntity
  8
寸法
  6
Continuous
 62
     0
370
    -2
100
AcDbLine
 10
7748.597946310954
 20
4774.361713876455
 30
0.0
 11
8048.597946311063
 21
4774.361713876455
 31
0.0
  0
LINE
  5
E3
330
44
100
AcDbEntity
  8
寸法
  6
Continuous
 62
     0
370
    -2
100
AcDbLine
 10
7748.597946310992
 20
9766.86171387645
 30
0.0
 11
7748.597946310992
 21
8039.677152777777
 31
0.0
  0
LINE
  5
E4
330
44
100
AcDbEntity
  8
寸法
  6
Continuous
 62
     0
370
    -2
100
AcDbLine
 10
7748.597946310992
 20
5091.861713876455
 30
0.0
 11
7748.597946310992
 21
7420.322847222223
 31
0.0
  0
INSERT
  5
E5
330
44
100
AcDbEntity
  8
寸法
 62
     0
370
    -2
100
AcDbBlockReference
  2
VW_SLASH
 10
7748.597946310992
 20
10084.36171387645
 30
0.0
 41
317.5
 42
317.5
 43
317.5
 50
90.0
  0
INSERT
  5
E6
330
44
100
AcDbEntity
  8
寸法
 62
     0
370
    -2
100
AcDbBlockReference
  2
VW_SLASH
 10
7748.597946310992
 20
4774.361713876455
 30
0.0
 41
317.5
 42
317.5
 43
317.5
 50
270.0
  0
MTEXT
  5
EA
330
44
100
AcDbEntity
  8
寸法
 62
     0
370
     5
100
AcDbMText
 10
7748.597946310992
 20
7730.0
 30
0.0
 40
194.0277777777778
 41
0.0
 71
     5
 72
     1
  1
\A1;5310
  7
ＭＳ Ｐゴシック
 11
0.0
 21
1.0
 31
0.0
 73
     1
 44
1.0
  0
POINT
  5
EE
330
44
100
AcDbEntity
  8
Defpoints
 62
     0
100
AcDbPoint
 10
7548.597946310992
 20
10084.36171387645
 30
0.0
  0
POINT
  5
EF
330
44
100
AcDbEntity
  8
Defpoints
 62
     0
100
AcDbPoint
 10
7548.597946310992
 20
4774.361713876455
 30
0.0
  0
POINT
  5
F0
330
44
100
AcDbEntity
  8
Defpoints
 62
     0
100
AcDbPoint
 10
7748.597946310992
 20
4774.361713876455
 30
0.0
  0
ENDBLK
  5
46
330
44
100
AcDbEntity
  8
0
100
AcDbBlockEnd
  0
BLOCK
  5
48
330
47
100
AcDbEntity
  8
0
100
AcDbBlockBegin
  2
*D5
 70
     1
 10
0.0
 20
0.0
 30
0.0
  3
*D5
  1

  0
LINE
  5
F3
330
47
100
AcDbEntity
  8
寸法
  6
Continuous
 62
     0
370
    -2
100
AcDbLine
 10
8860.377008018417
 20
5874.361713876458
 30
0.0
 11
9160.377008018524
 21
5874.361713876458
 31
0.0
  0
LINE
  5
F4
330
47
100
AcDbEntity
  8
寸法
  6
Continuous
 62
     0
370
    -2
100
AcDbLine
 10
8860.377008018417
 20
4774.361713876455
 30
0.0
 11
9160.377008018524
 21
4774.361713876455
 31
0.0
  0
LINE
  5
F5
330
47
100
AcDbEntity
  8
寸法
  6
Continuous
 62
     0
370
    -2
100
AcDbLine
 10
8860.377008018455
 20
5874.361713876458
 30
0.0
 11
8860.377008018455
 21
5626.374769432012
 31
0.0
  0
LINE
  5
F6
330
47
100
AcDbEntity
  8
寸法
  6
Continuous
 62
     0
370
    -2
100
AcDbLine
 10
8860.377008018455
 20
4774.361713876455
 30
0.0
 11
8860.377008018455
 21
5022.348658320901
 31
0.0
  0
LINE
  5
F7
330
47
100
AcDbEntity
  8
寸法
  6
Continuous
 62
     0
370
    -2
100
AcDbLine
 10
8860.377008018455
 20
6191.861713876458
 30
0.0
 11
8860.377008018455
 21
6509.361713876458
 31
0.0
  0
LINE
  5
F8
330
47
100
AcDbEntity
  8
寸法
  6
Continuous
 62
     0
370
    -2
100
AcDbLine
 10
8860.377008018455
 20
4456.861713876455
 30
0.0
 11
8860.377008018455
 21
4139.361713876455
 31
0.0
  0
INSERT
  5
FC
330
47
100
AcDbEntity
  8
寸法
 62
     0
370
    -2
100
AcDbBlockReference
  2
VW_SLASH
 10
8860.377008018455
 20
5874.361713876458
 30
0.0
 41
317.5
 42
317.5
 43
317.5
 50
270.0
  0
INSERT
  5
100
330
47
100
AcDbEntity
  8
寸法
 62
     0
370
    -2
100
AcDbBlockReference
  2
VW_SLASH
 10
8860.377008018455
 20
4774.361713876455
 30
0.0
 41
317.5
 42
317.5
 43
317.5
 50
90.0
  0
MTEXT
  5
101
330
47
100
AcDbEntity
  8
寸法
 62
     0
370
     5
100
AcDbMText
 10
8860.377008018455
 20
5324.361713876457
 30
0.0
 40
194.0277777777778
 41
0.0
 71
     5
 72
     1
  1
\A1;1100
  7
ＭＳ Ｐゴシック
 11
0.0
 21
1.0
 31
0.0
 73
     1
 44
1.0
  0
POINT
  5
102
330
47
100
AcDbEntity
  8
Defpoints
 62
     0
100
AcDbPoint
 10
8660.377008018455
 20
5874.361713876458
 30
0.0
  0
POINT
  5
103
330
47
100
AcDbEntity
  8
Defpoints
 62
     0
100
AcDbPoint
 10
8660.377008018455
 20
4774.361713876455
 30
0.0
  0
POINT
  5
104
330
47
100
AcDbEntity
  8
Defpoints
 62
     0
100
AcDbPoint
 10
8860.377008018455
 20
4774.361713876455
 30
0.0
  0
ENDBLK
  5
49
330
47
100
AcDbEntity
  8
0
100
AcDbBlockEnd
  0
BLOCK
  5
4B
330
4A
100
AcDbEntity
  8
0
100
AcDbBlockBegin
  2
*D6
 70
     1
 10
0.0
 20
0.0
 30
0.0
  3
*D6
  1

  0
LINE
  5
105
330
4A
100
AcDbEntity
  8
寸法
  6
Continuous
 62
     0
370
    -2
100
AcDbLine
 10
-2784.175513041376
 20
3124.361713876493
 30
0.0
 11
-2784.175513041376
 21
2724.361713876385
 31
0.0
  0
LINE
  5
106
330
4A
100
AcDbEntity
  8
寸法
  6
Continuous
 62
     0
370
    -2
100
AcDbLine
 10
-6784.175513041375
 20
3124.361713876493
 30
0.0
 11
-6784.175513041375
 21
2724.361713876385
 31
0.0
  0
LINE
  5
107
330
4A
100
AcDbEntity
  8
寸法
  6
Continuous
 62
     0
370
    -2
100
AcDbLine
 10
-3101.675513041376
 20
3024.361713876455
 30
0.0
 11
-4472.267040819152
 21
3024.361713876455
 31
0.0
  0
LINE
  5
108
330
4A
100
AcDbEntity
  8
寸法
  6
Continuous
 62
     0
370
    -2
100
AcDbLine
 10
-6466.675513041375
 20
3024.361713876455
 30
0.0
 11
-5096.083985263597
 21
3024.361713876455
 31
0.0
  0
INSERT
  5
109
330
4A
100
AcDbEntity
  8
寸法
 62
     0
370
    -2
100
AcDbBlockReference
  2
VW_SLASH
 10
-2784.175513041376
 20
3024.361713876455
 30
0.0
 41
317.5
 42
317.5
 43
317.5
  0
INSERT
  5
10A
330
4A
100
AcDbEntity
  8
寸法
 62
     0
370
    -2
100
AcDbBlockReference
  2
VW_SLASH
 10
-6784.175513041375
 20
3024.361713876455
 30
0.0
 41
317.5
 42
317.5
 43
317.5
 50
180.0
  0
MTEXT
  5
10E
330
4A
100
AcDbEntity
  8
寸法
 62
     0
370
     5
100
AcDbMText
 10
-4784.175513041375
 20
3024.361713876455
 30
0.0
 40
194.0277777777778
 41
0.0
 71
     5
 72
     1
  1
\A1;4000
  7
ＭＳ Ｐゴシック
 73
     1
 44
1.0
  0
POINT
  5
112
330
4A
100
AcDbEntity
  8
Defpoints
 62
     0
100
AcDbPoint
 10
-2784.175513041376
 20
3324.361713876455
 30
0.0
  0
POINT
  5
113
330
4A
100
AcDbEntity
  8
Defpoints
 62
     0
100
AcDbPoint
 10
-6784.175513041375
 20
3324.361713876455
 30
0.0
  0
POINT
  5
114
330
4A
100
AcDbEntity
  8
Defpoints
 62
     0
100
AcDbPoint
 10
-6784.175513041375
 20
3024.361713876455
 30
0.0
  0
ENDBLK
  5
4C
330
4A
100
AcDbEntity
  8
0
100
AcDbBlockEnd
  0
BLOCK
  5
4E
330
4D
100
AcDbEntity
  8
0
100
AcDbBlockBegin
  2
*D7
 70
     1
 10
0.0
 20
0.0
 30
0.0
  3
*D7
  1

  0
LINE
  5
117
330
4D
100
AcDbEntity
  8
寸法
  6
Continuous
 62
     0
370
    -2
100
AcDbLine
 10
715.824486958625
 20
3124.361713876493
 30
0.0
 11
715.8244869586254
 21
2724.361713876385
 31
0.0
  0
LINE
  5
118
330
4D
100
AcDbEntity
  8
寸法
  6
Continuous
 62
     0
370
    -2
100
AcDbLine
 10
-2784.175513041376
 20
3124.361713876493
 30
0.0
 11
-2784.175513041376
 21
2724.361713876385
 31
0.0
  0
LINE
  5
119
330
4D
100
AcDbEntity
  8
寸法
  6
Continuous
 62
     0
370
    -2
100
AcDbLine
 10
398.3244869586251
 20
3024.361713876455
 30
0.0
 11
-724.4983602635975
 21
3024.361713876455
 31
0.0
  0
LINE
  5
11A
330
4D
100
AcDbEntity
  8
寸法
  6
Continuous
 62
     0
370
    -2
100
AcDbLine
 10
-2466.675513041376
 20
3024.361713876455
 30
0.0
 11
-1343.852665819153
 21
3024.361713876455
 31
0.0
  0
INSERT
  5
11B
330
4D
100
AcDbEntity
  8
寸法
 62
     0
370
    -2
100
AcDbBlockReference
  2
VW_SLASH
 10
715.8244869586251
 20
3024.361713876455
 30
0.0
 41
317.5
 42
317.5
 43
317.5
  0
INSERT
  5
11C
330
4D
100
AcDbEntity
  8
寸法
 62
     0
370
    -2
100
AcDbBlockReference
  2
VW_SLASH
 10
-2784.175513041376
 20
3024.361713876455
 30
0.0
 41
317.5
 42
317.5
 43
317.5
 50
180.0
  0
MTEXT
  5
120
330
4D
100
AcDbEntity
  8
寸法
 62
     0
370
     5
100
AcDbMText
 10
-1034.175513041375
 20
3024.361713876455
 30
0.0
 40
194.0277777777778
 41
0.0
 71
     5
 72
     1
  1
\A1;3500
  7
ＭＳ Ｐゴシック
 73
     1
 44
1.0
  0
POINT
  5
124
330
4D
100
AcDbEntity
  8
Defpoints
 62
     0
100
AcDbPoint
 10
715.8244869586249
 20
3324.361713876455
 30
0.0
  0
POINT
  5
125
330
4D
100
AcDbEntity
  8
Defpoints
 62
     0
100
AcDbPoint
 10
-2784.175513041376
 20
3324.361713876455
 30
0.0
  0
POINT
  5
126
330
4D
100
AcDbEntity
  8
Defpoints
 62
     0
100
AcDbPoint
 10
-2784.175513041376
 20
3024.361713876455
 30
0.0
  0
ENDBLK
  5
4F
330
4D
100
AcDbEntity
  8
0
100
AcDbBlockEnd
  0
BLOCK
  5
51
330
50
100
AcDbEntity
  8
0
100
AcDbBlockBegin
  2
*D8
 70
     1
 10
0.0
 20
0.0
 30
0.0
  3
*D8
  1

  0
LINE
  5
129
330
50
100
AcDbEntity
  8
寸法
  6
Continuous
 62
     0
370
    -2
100
AcDbLine
 10
6515.824486958625
 20
3124.361713876493
 30
0.0
 11
6515.824486958625
 21
2724.361713876385
 31
0.0
  0
LINE
  5
12A
330
50
100
AcDbEntity
  8
寸法
  6
Continuous
 62
     0
370
    -2
100
AcDbLine
 10
715.8244869586249
 20
3124.361713876493
 30
0.0
 11
715.8244869586249
 21
2724.361713876385
 31
0.0
  0
LINE
  5
12B
330
50
100
AcDbEntity
  8
寸法
  6
Continuous
 62
     0
370
    -2
100
AcDbLine
 10
6198.324486958625
 20
3024.361713876455
 30
0.0
 11
3925.501639736403
 21
3024.361713876455
 31
0.0
  0
LINE
  5
12C
330
50
100
AcDbEntity
  8
寸法
  6
Continuous
 62
     0
370
    -2
100
AcDbLine
 10
1033.324486958625
 20
3024.361713876455
 30
0.0
 11
3306.147334180847
 21
3024.361713876455
 31
0.0
  0
INSERT
  5
12D
330
50
100
AcDbEntity
  8
寸法
 62
     0
370
    -2
100
AcDbBlockReference
  2
VW_SLASH
 10
6515.824486958625
 20
3024.361713876455
 30
0.0
 41
317.5
 42
317.5
 43
317.5
  0
INSERT
  5
12E
330
50
100
AcDbEntity
  8
寸法
 62
     0
370
    -2
100
AcDbBlockReference
  2
VW_SLASH
 10
715.8244869586249
 20
3024.361713876455
 30
0.0
 41
317.5
 42
317.5
 43
317.5
 50
180.0
  0
MTEXT
  5
132
330
50
100
AcDbEntity
  8
寸法
 62
     0
370
     5
100
AcDbMText
 10
3615.824486958625
 20
3024.361713876455
 30
0.0
 40
194.0277777777778
 41
0.0
 71
     5
 72
     1
  1
\A1;5800
  7
ＭＳ Ｐゴシック
 73
     1
 44
1.0
  0
POINT
  5
136
330
50
100
AcDbEntity
  8
Defpoints
 62
     0
100
AcDbPoint
 10
6515.824486958625
 20
3324.361713876455
 30
0.0
  0
POINT
  5
137
330
50
100
AcDbEntity
  8
Defpoints
 62
     0
100
AcDbPoint
 10
715.8244869586249
 20
3324.361713876455
 30
0.0
  0
POINT
  5
138
330
50
100
AcDbEntity
  8
Defpoints
 62
     0
100
AcDbPoint
 10
715.8244869586249
 20
3024.361713876455
 30
0.0
  0
ENDBLK
  5
52
330
50
100
AcDbEntity
  8
0
100
AcDbBlockEnd
  0
BLOCK
  5
54
330
53
100
AcDbEntity
  8
0
100
AcDbBlockBegin
  2
グループ-1
 70
     0
 10
0.0
 20
0.0
 30
0.0
  3
グループ-1
  1

  0
LINE
  5
13B
330
53
100
AcDbEntity
  8
_0-0_
  6
Continuous
 62
     8
370
    18
100
AcDbLine
 10
-1073.965359255777
 20
6200.735462338685
 30
0.0
 11
-1073.965359255777
 21
5767.615918105043
 31
0.0
  0
LINE
  5
13C
330
53
100
AcDbEntity
  8
_0-0_
  6
Continuous
 62
     8
370
    18
100
AcDbLine
 10
8553.663366851983
 20
5609.598677791233
 30
0.0
 11
8553.663366851983
 21
5390.659127958844
 31
0.0
  0
LINE
  5
13D
330
53
100
AcDbEntity
  8
_0-0_
  6
Continuous
 62
     8
370
    18
100
AcDbLine
 10
8553.663366851983
 20
5609.598677791233
 30
0.0
 11
8187.177598654284
 21
5609.598677791233
 31
0.0
  0
LINE
  5
13E
330
53
100
AcDbEntity
  8
_0-0_
  6
Continuous
 62
     8
370
    18
100
AcDbLine
 10
8457.520347142974
 20
6411.107812395026
 30
0.0
 11
8457.520347142974
 21
5907.546847780528
 31
0.0
  0
LINE
  5
13F
330
53
100
AcDbEntity
  8
_0-0_
  6
Continuous
 62
     8
370
    18
100
AcDbLine
 10
8329.964261588451
 20
5609.598677791233
 30
0.0
 11
8329.964261588451
 21
5907.546847780528
 31
0.0
  0
LINE
  5
140
330
53
100
AcDbEntity
  8
_0-0_
  6
Continuous
 62
     8
370
    18
100
AcDbLine
 10
8329.964261588451
 20
5907.546847780528
 30
0.0
 11
8457.520347142974
 21
5907.546847780528
 31
0.0
  0
LINE
  5
141
330
53
100
AcDbEntity
  8
_0-0_
  6
Continuous
 62
     8
370
    18
100
AcDbLine
 10
8457.520347142974
 20
6411.107812395026
 30
0.0
 11
8244.292263827952
 21
6411.107812395026
 31
0.0
  0
LINE
  5
142
330
53
100
AcDbEntity
  8
_0-0_
  6
Continuous
 62
     8
370
    18
100
AcDbLine
 10
8244.292263827952
 20
6411.107812395026
 30
0.0
 11
7934.921160803921
 21
7227.847524378461
 31
0.0
  0
LINE
  5
143
330
53
100
AcDbEntity
  8
_0-0_
  6
Continuous
 62
     8
370
    18
100
AcDbLine
 10
7538.926148933167
 20
6298.782304220145
 30
0.0
 11
7174.344202907929
 21
6298.782304220145
 31
0.0
  0
LINE
  5
144
330
53
100
AcDbEntity
  8
_0-0_
  6
Continuous
 62
     8
370
    18
100
AcDbLine
 10
7538.926148933167
 20
6298.782304220145
 30
0.0
 11
7748.346587903275
 21
5783.798406570917
 31
0.0
  0
LINE
  5
145
330
53
100
AcDbEntity
  8
_0-0_
  6
Continuous
 62
     8
370
    18
100
AcDbLine
 10
7748.346587903275
 20
5783.798406570917
 30
0.0
 11
8091.034578945279
 21
5783.798406570917
 31
0.0
  0
LINE
  5
146
330
53
100
AcDbEntity
  8
_0-0_
  6
Continuous
 62
     8
370
    18
100
AcDbLine
 10
8091.034578945279
 20
5783.798406570917
 30
0.0
 11
8091.034578945279
 21
6401.588701532748
 31
0.0
  0
LINE
  5
147
330
53
100
AcDbEntity
  8
_0-0_
  6
Continuous
 62
     8
370
    18
100
AcDbLine
 10
8071.996357220722
 20
6459.65527779264
 30
0.0
 11
7187.670958115117
 21
6459.65527779264
 31
0.0
  0
LINE
  5
148
330
53
100
AcDbEntity
  8
_0-0_
  6
Continuous
 62
     8
370
    18
100
AcDbLine
 10
7174.344202907929
 20
6298.782304220145
 30
0.0
 11
7174.344202907929
 21
7227.847524378461
 31
0.0
  0
LINE
  5
149
330
53
100
AcDbEntity
  8
_0-0_
  6
Continuous
 62
     8
370
    18
100
AcDbLine
 10
6258.605737956803
 20
5767.615918105043
 30
0.0
 11
6437.565022167624
 21
6148.380352596156
 31
0.0
  0
LINE
  5
14A
330
53
100
AcDbEntity
  8
_0-0_
  6
Continuous
 62
     8
370
    18
100
AcDbLine
 10
7993.939648150046
 20
7446.787074210848
 30
0.0
 11
8457.520347142974
 21
6411.107812395026
 31
0.0
  0
LINE
  5
14B
330
53
100
AcDbEntity
  8
_0-0_
  6
Continuous
 62
     8
370
    18
100
AcDbLine
 10
6208.154450386728
 20
7585.766092800104
 30
0.0
 11
6317.624225302925
 21
7585.766092800104
 31
0.0
  0
LINE
  5
14C
330
53
100
AcDbEntity
  8
_0-0_
  6
Continuous
 62
     8
370
    18
100
AcDbLine
 10
-1025.417893858159
 20
5525.830502203189
 30
0.0
 11
-1025.417893858159
 21
5767.615918105043
 31
0.0
  0
LINE
  5
14D
330
53
100
AcDbEntity
  8
_0-0_
  6
Continuous
 62
     8
370
    18
100
AcDbLine
 10
6258.605737956803
 20
5767.615918105043
 30
0.0
 11
6258.605737956803
 21
5525.830502203189
 31
0.0
  0
LINE
  5
14E
330
53
100
AcDbEntity
  8
_0-0_
  6
Continuous
 62
     8
370
    18
100
AcDbLine
 10
7409.46624120619
 20
5957.998135350599
 30
0.0
 11
6557.505819032327
 21
5957.998135350599
 31
0.0
  0
LINE
  5
14F
330
53
100
AcDbEntity
  8
_0-0_
  6
Continuous
 62
     8
370
    18
100
AcDbLine
 10
6540.371419480221
 20
5957.998135350599
 30
0.0
 11
6540.371419480221
 21
6731.901848453788
 31
0.0
  0
LINE
  5
150
330
53
100
AcDbEntity
  8
_0-0_
  6
Continuous
 62
     8
370
    18
100
AcDbLine
 10
7097.239404923477
 20
7227.847524378461
 30
0.0
 11
7097.239404923477
 21
5957.998135350599
 31
0.0
  0
LINE
  5
151
330
53
100
AcDbEntity
  8
_0-0_
  6
Continuous
 62
     8
370
    18
100
AcDbLine
 10
7097.239404923477
 20
6772.834025161581
 30
0.0
 11
6779.301102123398
 21
6772.834025161581
 31
0.0
  0
LINE
  5
152
330
53
100
AcDbEntity
  8
_0-0_
  6
Continuous
 62
     8
370
    18
100
AcDbLine
 10
6779.301102123398
 20
6772.834025161581
 30
0.0
 11
6779.301102123398
 21
7227.847524378461
 31
0.0
  0
LINE
  5
153
330
53
100
AcDbEntity
  8
_0-0_
  6
Continuous
 62
     8
370
    18
100
AcDbLine
 10
6669.831327207203
 20
7321.134810828781
 30
0.0
 11
8051.054313323717
 21
7279.25072303476
 31
0.0
  0
LINE
  5
154
330
53
100
AcDbEntity
  8
_0-0_
  6
Continuous
 62
     8
370
    18
100
AcDbLine
 10
8187.177598654284
 20
5390.659127958844
 30
0.0
 11
8187.177598654284
 21
6455.847633447731
 31
0.0
  0
LINE
  5
155
330
53
100
AcDbEntity
  8
_0-0_
  6
Continuous
 62
     8
370
    18
100
AcDbLine
 10
8187.177598654284
 20
5680.040098172088
 30
0.0
 11
7579.858325640964
 21
5680.040098172088
 31
0.0
  0
LINE
  5
156
330
53
100
AcDbEntity
  8
_0-0_
  6
Continuous
 62
     8
370
    18
100
AcDbLine
 10
7750.250410075737
 20
5390.659127958844
 30
0.0
 11
8553.663366851983
 21
5390.659127958844
 31
0.0
  0
LINE
  5
157
330
53
100
AcDbEntity
  8
_0-0_
  6
Continuous
 62
     8
370
    18
100
AcDbLine
 10
7993.939648150046
 20
7446.787074210848
 30
0.0
 11
6699.340570880267
 21
7446.787074210848
 31
0.0
  0
LINE
  5
158
330
53
100
AcDbEntity
  8
_0-0_
  6
Continuous
 62
     8
370
    18
100
AcDbLine
 10
6317.624225302925
 20
7585.766092800104
 30
0.0
 11
6437.565022167624
 21
6148.380352596156
 31
0.0
  0
LINE
  5
159
330
53
100
AcDbEntity
  8
_0-0_
  6
Continuous
 62
     8
370
    18
100
AcDbLine
 10
6540.371419480221
 20
6731.901848453788
 30
0.0
 11
6699.340570880267
 21
7446.787074210848
 31
0.0
  0
LINE
  5
15A
330
53
100
AcDbEntity
  8
_0-0_
  6
Continuous
 62
     8
370
    18
100
AcDbLine
 10
8187.177598654284
 20
6455.847633447731
 30
0.0
 11
7874.950762371575
 21
7279.25072303476
 31
0.0
  0
LINE
  5
15B
330
53
100
AcDbEntity
  8
_0-0_
  6
Continuous
 62
     8
370
    18
100
AcDbLine
 10
7935.873071890152
 20
7224.039880033551
 30
0.0
 11
8042.487113547662
 21
7279.25072303476
 31
0.0
  0
LINE
  5
15C
330
53
100
AcDbEntity
  8
_0-0_
  6
Continuous
 62
     8
370
    18
100
AcDbLine
 10
8091.034578945279
 20
6402.540612618976
 30
0.0
 11
7760.72143202424
 21
7227.847524378461
 31
0.0
  0
LINE
  5
15D
330
53
100
AcDbEntity
  8
_0-0_
  6
Continuous
 62
     8
370
    18
100
AcDbLine
 10
6208.154450386728
 20
6200.735462338685
 30
0.0
 11
6208.154450386728
 21
7585.766092800104
 31
0.0
  0
LINE
  5
15E
330
53
100
AcDbEntity
  8
_0-0_
  6
Continuous
 62
     8
370
    18
100
AcDbLine
 10
6522.285108841899
 20
5201.228821799514
 30
0.0
 11
3265.797282856668
 21
5201.228821799514
 31
0.0
  0
LINE
  5
15F
330
53
100
AcDbEntity
  8
_0-0_
  6
Continuous
 62
     8
370
    18
100
AcDbLine
 10
3265.797282856668
 20
5201.228821799514
 30
0.0
 11
3265.797282856668
 21
5525.830502203189
 31
0.0
  0
LINE
  5
160
330
53
100
AcDbEntity
  8
_0-0_
  6
Continuous
 62
     8
370
    18
100
AcDbLine
 10
6522.285108841899
 20
5525.830502203189
 30
0.0
 11
6522.285108841899
 21
5201.228821799514
 31
0.0
  0
LINE
  5
161
330
53
100
AcDbEntity
  8
_0-0_
  6
Continuous
 62
     8
370
    18
100
AcDbLine
 10
6540.371419480221
 20
5957.998135350599
 30
0.0
 11
6388.065645683781
 21
5525.830502203189
 31
0.0
  0
LINE
  5
162
330
53
100
AcDbEntity
  8
_0-0_
  6
Continuous
 62
     8
370
    18
100
AcDbLine
 10
6779.301102123398
 20
5957.998135350599
 30
0.0
 11
6522.285108841899
 21
5525.830502203189
 31
0.0
  0
LINE
  5
163
330
53
100
AcDbEntity
  8
_0-0_
  6
Continuous
 62
     8
370
    18
100
AcDbLine
 10
3079.222709956027
 20
5767.615918105043
 30
0.0
 11
6258.605737956803
 21
5767.615918105043
 31
0.0
  0
LINE
  5
164
330
53
100
AcDbEntity
  8
_0-0_
  6
Continuous
 62
     8
370
    18
100
AcDbLine
 10
3021.156133696129
 20
5525.830502203189
 30
0.0
 11
6522.285108841899
 21
5525.830502203189
 31
0.0
  0
LINE
  5
165
330
53
100
AcDbEntity
  8
_0-0_
  6
Continuous
 62
     8
370
    18
100
AcDbLine
 10
6779.301102123398
 20
7227.847524378461
 30
0.0
 11
7097.239404923477
 21
7227.847524378461
 31
0.0
  0
LINE
  5
166
330
53
100
AcDbEntity
  8
_0-0_
  6
Continuous
 62
     8
370
    18
100
AcDbLine
 10
7174.344202907929
 20
7227.847524378461
 30
0.0
 11
7760.72143202424
 21
7227.847524378461
 31
0.0
  0
LINE
  5
167
330
53
100
AcDbEntity
  8
_0-0_
  6
Continuous
 62
     8
370
    18
100
AcDbLine
 10
1783.671721600023
 20
5525.830502203189
 30
0.0
 11
2225.358465609709
 21
5525.830502203189
 31
0.0
  0
LINE
  5
168
330
53
100
AcDbEntity
  8
_0-0_
  6
Continuous
 62
     8
370
    18
100
AcDbLine
 10
-1025.417893858159
 20
5525.830502203189
 30
0.0
 11
987.8740535135964
 21
5525.830502203189
 31
0.0
  0
LINE
  5
169
330
53
100
AcDbEntity
  8
_0-0_
  6
Continuous
 62
     8
370
    18
100
AcDbLine
 10
1841.738297859918
 20
5767.615918105043
 30
0.0
 11
2166.339978263583
 21
5767.615918105043
 31
0.0
  0
LINE
  5
16A
330
53
100
AcDbEntity
  8
_0-0_
  6
Continuous
 62
     8
370
    18
100
AcDbLine
 10
-1073.965359255777
 20
5767.615918105043
 30
0.0
 11
928.8555661674798
 21
5767.615918105043
 31
0.0
  0
LINE
  5
16B
330
53
100
AcDbEntity
  8
_0-0_
  6
Continuous
 62
     8
370
    18
100
AcDbLine
 10
7409.46624120619
 20
5957.998135350599
 30
0.0
 11
7750.250410075737
 21
5390.659127958844
 31
0.0
  0
SPLINE
  5
16C
330
53
100
AcDbEntity
  8
_0-0_
  6
Continuous
 62
     8
370
    18
100
AcDbSpline
210
0.0
220
0.0
230
1.0
 70
    11
 71
     2
 72
    17
 73
    14
 74
     0
 42
0.000000001
 43
0.0000000000001
 40
0.0
 40
0.0
 40
0.0
 40
1.0
 40
2.0
 40
3.0
 40
4.0
 40
5.0
 40
6.0
 40
7.0
 40
8.0
 40
9.0
 40
10.0
 40
11.0
 40
12.0
 40
12.0
 40
12.0
 10
2376.712328319926
 20
5272.622153266597
 30
0.0
 10
2376.712328319926
 20
5338.683679233228
 30
0.0
 10
2442.773854286556
 20
5453.105598632962
 30
0.0
 10
2557.195773686289
 20
5519.167124599593
 30
0.0
 10
2689.318825619548
 20
5519.167124599593
 30
0.0
 10
2803.740745019281
 20
5453.105598632962
 30
0.0
 10
2869.802270985911
 20
5338.683679233228
 30
0.0
 10
2869.802270985911
 20
5206.560627299968
 30
0.0
 10
2803.740745019281
 20
5092.138707900233
 30
0.0
 10
2689.318825619548
 20
5026.077181933603
 30
0.0
 10
2557.195773686289
 20
5026.077181933602
 30
0.0
 10
2442.773854286556
 20
5092.138707900232
 30
0.0
 10
2376.712328319926
 20
5206.560627299967
 30
0.0
 10
2376.712328319926
 20
5272.622153266597
 30
0.0
  0
SPLINE
  5
16D
330
53
100
AcDbEntity
  8
_0-0_
  6
Continuous
 62
     8
370
    18
100
AcDbSpline
210
0.0
220
0.0
230
1.0
 70
    11
 71
     2
 72
    17
 73
    14
 74
     0
 42
0.000000001
 43
0.0000000000001
 40
0.0
 40
0.0
 40
0.0
 40
1.0
 40
2.0
 40
3.0
 40
4.0
 40
5.0
 40
6.0
 40
7.0
 40
8.0
 40
9.0
 40
10.0
 40
11.0
 40
12.0
 40
12.0
 40
12.0
 10
2152.061311970169
 20
5272.622153266597
 30
0.0
 10
2152.061311970167
 20
5398.878737642976
 30
0.0
 10
2278.317896346548
 20
5617.56155657297
 30
0.0
 10
2497.00071527654
 20
5743.818140949349
 30
0.0
 10
2749.513884029294
 20
5743.818140949349
 30
0.0
 10
2968.19670295929
 20
5617.56155657297
 30
0.0
 10
3094.453287335667
 20
5398.878737642977
 30
0.0
 10
3094.453287335667
 20
5146.36556889022
 30
0.0
 10
2968.19670295929
 20
4927.682749960225
 30
0.0
 10
2749.513884029298
 20
4801.426165583846
 30
0.0
 10
2497.000715276544
 20
4801.426165583846
 30
0.0
 10
2278.317896346548
 20
4927.682749960223
 30
0.0
 10
2152.061311970171
 20
5146.365568890216
 30
0.0
 10
2152.061311970169
 20
5272.622153266597
 30
0.0
  0
SPLINE
  5
16E
330
53
100
AcDbEntity
  8
_0-0_
  6
Continuous
 62
     8
370
    18
100
AcDbSpline
210
0.0
220
0.0
230
1.0
 70
     8
 71
     2
 72
     9
 73
     6
 74
     0
 42
0.000000001
 43
0.0000000000001
 40
0.0
 40
0.0
 40
0.0
 40
1.0
 40
2.0
 40
3.0
 40
4.0
 40
4.0
 40
4.0
 10
2051.821830460257
 20
5628.138729881682
 30
0.0
 10
2144.080082391692
 20
5776.428967094484
 30
0.0
 10
2449.529074181742
 20
5945.861052080575
 30
0.0
 10
2798.822776806505
 20
5945.384276482117
 30
0.0
 10
3103.808091675161
 20
5775.118966677801
 30
0.0
 10
3195.661176983352
 20
5626.577422921721
 30
0.0
  0
SPLINE
  5
16F
330
53
100
AcDbEntity
  8
_0-0_
  6
Continuous
 62
     8
370
    18
100
AcDbSpline
210
0.0
220
0.0
230
1.0
 70
    11
 71
     2
 72
    17
 73
    14
 74
     0
 42
0.000000001
 43
0.0000000000001
 40
0.0
 40
0.0
 40
0.0
 40
1.0
 40
2.0
 40
3.0
 40
4.0
 40
5.0
 40
6.0
 40
7.0
 40
8.0
 40
9.0
 40
10.0
 40
11.0
 40
12.0
 40
12.0
 40
12.0
 10
1139.227916223816
 20
5272.622153266597
 30
0.0
 10
1139.227916223815
 20
5338.683679233228
 30
0.0
 10
1205.289442190445
 20
5453.105598632962
 30
0.0
 10
1319.71136159018
 20
5519.167124599594
 30
0.0
 10
1451.834413523442
 20
5519.167124599594
 30
0.0
 10
1566.256332923176
 20
5453.105598632963
 30
0.0
 10
1632.317858889806
 20
5338.683679233229
 30
0.0
 10
1632.317858889806
 20
5206.560627299967
 30
0.0
 10
1566.256332923176
 20
5092.138707900232
 30
0.0
 10
1451.834413523445
 20
5026.077181933601
 30
0.0
 10
1319.71136159018
 20
5026.077181933601
 30
0.0
 10
1205.289442190447
 20
5092.138707900231
 30
0.0
 10
1139.227916223817
 20
5206.560627299966
 30
0.0
 10
1139.227916223816
 20
5272.622153266597
 30
0.0
  0
SPLINE
  5
170
330
53
100
AcDbEntity
  8
_0-0_
  6
Continuous
 62
     8
370
    18
100
AcDbSpline
210
0.0
220
0.0
230
1.0
 70
    11
 71
     2
 72
    17
 73
    14
 74
     0
 42
0.000000001
 43
0.0000000000001
 40
0.0
 40
0.0
 40
0.0
 40
1.0
 40
2.0
 40
3.0
 40
4.0
 40
5.0
 40
6.0
 40
7.0
 40
8.0
 40
9.0
 40
10.0
 40
11.0
 40
12.0
 40
12.0
 40
12.0
 10
914.5768998740639
 20
5272.622153266597
 30
0.0
 10
914.5768998740639
 20
5398.878737642976
 30
0.0
 10
1040.83348425044
 20
5617.56155657297
 30
0.0
 10
1259.516303180433
 20
5743.81814094935
 30
0.0
 10
1512.029471933188
 20
5743.81814094935
 30
0.0
 10
1730.712290863184
 20
5617.561556572971
 30
0.0
 10
1856.968875239561
 20
5398.878737642978
 30
0.0
 10
1856.968875239561
 20
5146.36556889022
 30
0.0
 10
1730.712290863184
 20
4927.682749960225
 30
0.0
 10
1512.029471933188
 20
4801.426165583845
 30
0.0
 10
1259.516303180435
 20
4801.426165583845
 30
0.0
 10
1040.833484250442
 20
4927.682749960221
 30
0.0
 10
914.5768998740639
 20
5146.365568890216
 30
0.0
 10
914.5768998740639
 20
5272.622153266597
 30
0.0
  0
SPLINE
  5
171
330
53
100
AcDbEntity
  8
_0-0_
  6
Continuous
 62
     8
370
    18
100
AcDbSpline
210
0.0
220
0.0
230
1.0
 70
     8
 71
     2
 72
     9
 73
     6
 74
     0
 42
0.000000001
 43
0.0000000000001
 40
0.0
 40
0.0
 40
0.0
 40
1.0
 40
2.0
 40
3.0
 40
4.0
 40
4.0
 40
4.0
 10
814.3347688728606
 20
5628.134471217029
 30
0.0
 10
906.5922691478261
 20
5776.425964168792
 30
0.0
 10
1212.04148424436
 20
5945.860405627143
 30
0.0
 10
1561.336526977729
 20
5945.384929772312
 30
0.0
 10
1866.323327639855
 20
5775.119535821358
 30
0.0
 10
1958.176764887242
 20
5626.577422921721
 30
0.0
  0
SPLINE
  5
172
330
53
100
AcDbEntity
  8
_0-0_
  6
Continuous
 62
     8
370
    18
100
AcDbSpline
210
0.0
220
0.0
230
1.0
 70
    11
 71
     2
 72
    17
 73
    14
 74
     0
 42
0.000000001
 43
0.0000000000001
 40
0.0
 40
0.0
 40
0.0
 40
1.0
 40
2.0
 40
3.0
 40
4.0
 40
5.0
 40
6.0
 40
7.0
 40
8.0
 40
9.0
 40
10.0
 40
11.0
 40
12.0
 40
12.0
 40
12.0
 10
6945.88554221326
 20
5272.622153266597
 30
0.0
 10
6945.88554221326
 20
5338.683679233229
 30
0.0
 10
7011.94706817989
 20
5453.105598632965
 30
0.0
 10
7126.368987579628
 20
5519.167124599597
 30
0.0
 10
7258.492039512888
 20
5519.167124599597
 30
0.0
 10
7372.913958912623
 20
5453.105598632966
 30
0.0
 10
7438.975484879256
 20
5338.68367923323
 30
0.0
 10
7438.975484879256
 20
5206.560627299967
 30
0.0
 10
7372.913958912623
 20
5092.13870790023
 30
0.0
 10
7258.492039512888
 20
5026.077181933599
 30
0.0
 10
7126.368987579628
 20
5026.077181933598
 30
0.0
 10
7011.947068179894
 20
5092.138707900229
 30
0.0
 10
6945.88554221326
 20
5206.560627299965
 30
0.0
 10
6945.88554221326
 20
5272.622153266597
 30
0.0
  0
SPLINE
  5
173
330
53
100
AcDbEntity
  8
_0-0_
  6
Continuous
 62
     8
370
    18
100
AcDbSpline
210
0.0
220
0.0
230
1.0
 70
    11
 71
     2
 72
    17
 73
    14
 74
     0
 42
0.000000001
 43
0.0000000000001
 40
0.0
 40
0.0
 40
0.0
 40
1.0
 40
2.0
 40
3.0
 40
4.0
 40
5.0
 40
6.0
 40
7.0
 40
8.0
 40
9.0
 40
10.0
 40
11.0
 40
12.0
 40
12.0
 40
12.0
 10
6721.234525863503
 20
5272.622153266597
 30
0.0
 10
6721.234525863503
 20
5398.878737642977
 30
0.0
 10
6847.491110239882
 20
5617.561556572973
 30
0.0
 10
7066.173929169878
 20
5743.818140949354
 30
0.0
 10
7318.687097922639
 20
5743.818140949354
 30
0.0
 10
7537.369916852631
 20
5617.561556572974
 30
0.0
 10
7663.626501229011
 20
5398.878737642978
 30
0.0
 10
7663.626501229011
 20
5146.36556889022
 30
0.0
 10
7537.369916852635
 20
4927.682749960222
 30
0.0
 10
7318.687097922639
 20
4801.426165583843
 30
0.0
 10
7066.173929169881
 20
4801.426165583841
 30
0.0
 10
6847.491110239886
 20
4927.68274996022
 30
0.0
 10
6721.234525863503
 20
5146.365568890215
 30
0.0
 10
6721.234525863503
 20
5272.622153266597
 30
0.0
  0
WIPEOUT
  5
174
330
53
100
AcDbEntity
  8
一般
  6
Continuous
 62
     8
370
     5
 92
      152
310
98000000040000000C0000000E000000120000000C00000016000000000000C20C00000014000000010000006C0000000700000004000000A8B4DDAFF0A890C0241149C0A73ABF4000000000000000000A5B3A3A8375B840241149C0A73ABF4000000000000000000A5B3A3A8375B840CD5FCC85FF45B74000000000000000
310
00A8B4DDAFF0A890C0CD5FCC85FF45B7400000000000000000
100
AcDbWipeout
 90
        0
 10
-1066.235045875694
 20
5957.998135350599
 30
0.0
 11
7327.747653113725
 21
0.0
 31
0.0
 12
0.0
 22
7327.747653113725
 32
0.0
 13
1.0
 23
1.0
340
0
 70
     4
280
     1
281
    50
282
    50
283
     0
360
0
 71
     2
 91
        5
 14
-0.5
 24
0.2220623254436704
 14
0.5
 24
0.2220623254436704
 14
0.5
 24
0.5000000000000001
 14
-0.5
 24
0.5000000000000001
 14
-0.5
 24
0.2220623254436704
  0
POLYLINE
  5
175
330
53
100
AcDbEntity
  8
一般
  6
Continuous
 62
     8
370
     5
100
AcDb2dPolyline
 66
     1
 10
0.0
 20
0.0
 30
0.0
 70
     5
 75
     5
  0
VERTEX
  5
176
330
175
100
AcDbEntity
  8
一般
  6
Continuous
 62
     8
370
     5
100
AcDbVertex
100
AcDb2dVertex
 10
-1066.235045875694
 20
7994.655277792631
 30
0.0
  0
VERTEX
  5
177
330
175
100
AcDbEntity
  8
一般
  6
Continuous
 62
     8
370
     5
100
AcDbVertex
100
AcDb2dVertex
 10
6261.512607238032
 20
7994.655277792631
 30
0.0
  0
VERTEX
  5
178
330
175
100
AcDbEntity
  8
一般
  6
Continuous
 62
     8
370
     5
100
AcDbVertex
100
AcDb2dVertex
 10
6261.512607238032
 20
5957.998135350599
 30
0.0
  0
VERTEX
  5
179
330
175
100
AcDbEntity
  8
一般
  6
Continuous
 62
     8
370
     5
100
AcDbVertex
100
AcDb2dVertex
 10
-1066.235045875694
 20
5957.998135350599
 30
0.0
  0
SEQEND
  5
17A
330
175
100
AcDbEntity
  8
一般
  6
Continuous
 62
     8
370
     5
  0
ENDBLK
  5
55
330
53
100
AcDbEntity
  8
0
100
AcDbBlockEnd
  0
BLOCK
  5
57
330
56
100
AcDbEntity
  8
0
100
AcDbBlockBegin
  2
グループ-2
 70
     0
 10
0.0
 20
0.0
 30
0.0
  3
グループ-2
  1

  0
LINE
  5
17B
330
56
100
AcDbEntity
  8
_0-0_
  6
Continuous
 62
     8
370
    18
100
AcDbLine
 10
-1182.196550387069
 20
-10876.76394001362
 30
0.0
 11
6364.607567022534
 21
-10876.76394001362
 31
0.0
  0
LINE
  5
17C
330
56
100
AcDbEntity
  8
_0-0_
  6
Continuous
 62
     8
370
    18
100
AcDbLine
 10
6589.758757143723
 20
-10977.56384521432
 30
0.0
 11
8357.996346505564
 21
-10977.56384521432
 31
0.0
  0
LINE
  5
17D
330
56
100
AcDbEntity
  8
_0-0_
  6
Continuous
 62
     8
370
    18
100
AcDbLine
 10
6469.175692978396
 20
-10775.96403481292
 30
0.0
 11
6593.526977898892
 21
-10775.96403481292
 31
0.0
  0
LINE
  5
17E
330
56
100
AcDbEntity
  8
_0-0_
  6
Continuous
 62
     8
370
    18
100
AcDbLine
 10
6689.61660715563
 20
-10780.67431075687
 30
0.0
 11
8075.37978986808
 21
-10780.67431075687
 31
0.0
  0
LINE
  5
17F
330
56
100
AcDbEntity
  8
_0-0_
  6
Continuous
 62
     8
370
    18
100
AcDbLine
 10
8006.609761086292
 20
-10157.03377577683
 30
0.0
 11
8189.368467711867
 21
-10157.03377577683
 31
0.0
  0
LINE
  5
180
330
56
100
AcDbEntity
  8
_0-0_
  6
Continuous
 62
     8
370
    18
100
AcDbLine
 10
6689.61660715563
 20
-10913.50409237649
 30
0.0
 11
8233.645061585066
 21
-10913.50409237649
 31
0.0
  0
LINE
  5
181
330
56
100
AcDbEntity
  8
_0-0_
  6
Continuous
 62
     8
370
    18
100
AcDbLine
 10
7145.571318530777
 20
-10913.50409237649
 30
0.0
 11
7145.571318530777
 21
-10780.67431075687
 31
0.0
  0
LINE
  5
182
330
56
100
AcDbEntity
  8
_0-0_
  6
Continuous
 62
     8
370
    18
100
AcDbLine
 10
6388.158946742312
 20
-10369.93824844373
 30
0.0
 11
6460.69719627927
 21
-10369.93824844373
 31
0.0
  0
LINE
  5
183
330
56
100
AcDbEntity
  8
_0-0_
  6
Continuous
 62
     8
370
    18
100
AcDbLine
 10
8189.368467711867
 20
-10437.76622203673
 30
0.0
 11
8445.607479063174
 21
-10437.76622203673
 31
0.0
  0
LINE
  5
184
330
56
100
AcDbEntity
  8
_0-0_
  6
Continuous
 62
     8
370
    18
100
AcDbLine
 10
-1076.686369242409
 20
-10981.33206596948
 30
0.0
 11
6364.607567022534
 21
-10981.33206596948
 31
0.0
  0
LINE
  5
185
330
56
100
AcDbEntity
  8
_0-0_
  6
Continuous
 62
     8
370
    18
100
AcDbLine
 10
8075.37978986808
 20
-10780.67431075687
 30
0.0
 11
8233.645061585066
 21
-10913.50409237649
 31
0.0
  0
LINE
  5
186
330
56
100
AcDbEntity
  8
_0-0_
  6
Continuous
 62
     8
370
    18
100
AcDbLine
 10
-1182.196550387069
 20
-10876.76394001362
 30
0.0
 11
-1182.196550387069
 21
-8741.12482702304
 31
0.0
  0
LINE
  5
187
330
56
100
AcDbEntity
  8
_0-0_
  6
Continuous
 62
     8
370
    18
100
AcDbLine
 10
-1182.196550387069
 20
-8741.12482702304
 30
0.0
 11
6364.607567022534
 21
-8741.12482702304
 31
0.0
  0
LINE
  5
188
330
56
100
AcDbEntity
  8
_0-0_
  6
Continuous
 62
     8
370
    18
100
AcDbLine
 10
6255.3291651227
 20
-8741.12482702304
 30
0.0
 11
6255.3291651227
 21
-10876.76394001362
 31
0.0
  0
LINE
  5
189
330
56
100
AcDbEntity
  8
_0-0_
  6
Continuous
 62
     8
370
    18
100
AcDbLine
 10
-1076.686369242409
 20
-10981.33206596948
 30
0.0
 11
-1076.686369242409
 21
-8635.614645878379
 31
0.0
  0
LINE
  5
18A
330
56
100
AcDbEntity
  8
_0-0_
  6
Continuous
 62
     8
370
    18
100
AcDbLine
 10
6364.607567022534
 20
-8635.614645878379
 30
0.0
 11
6364.607567022534
 21
-10981.33206596948
 31
0.0
  0
LINE
  5
18B
330
56
100
AcDbEntity
  8
_0-0_
  6
Continuous
 62
     8
370
    18
100
AcDbLine
 10
6589.758757143723
 20
-8640.324921822337
 30
0.0
 11
8357.996346505564
 21
-8640.324921822337
 31
0.0
  0
LINE
  5
18C
330
56
100
AcDbEntity
  8
_0-0_
  6
Continuous
 62
     8
370
    18
100
AcDbLine
 10
6469.175692978396
 20
-8840.982677034948
 30
0.0
 11
6593.526977898892
 21
-8840.982677034948
 31
0.0
  0
LINE
  5
18D
330
56
100
AcDbEntity
  8
_0-0_
  6
Continuous
 62
     8
370
    18
100
AcDbLine
 10
6593.526977898892
 20
-8640.324921822337
 30
0.0
 11
6593.526977898892
 21
-10977.56384521432
 31
0.0
  0
LINE
  5
18E
330
56
100
AcDbEntity
  8
_0-0_
  6
Continuous
 62
     8
370
    18
100
AcDbLine
 10
6689.61660715563
 20
-8837.214456279782
 30
0.0
 11
8075.37978986808
 21
-8837.214456279782
 31
0.0
  0
LINE
  5
18F
330
56
100
AcDbEntity
  8
_0-0_
  6
Continuous
 62
     8
370
    18
100
AcDbLine
 10
8006.609761086292
 20
-9459.912936071038
 30
0.0
 11
8189.368467711867
 21
-9459.912936071038
 31
0.0
  0
LINE
  5
190
330
56
100
AcDbEntity
  8
_0-0_
  6
Continuous
 62
     8
370
    18
100
AcDbLine
 10
8006.609761086292
 20
-10157.03377577683
 30
0.0
 11
8006.609761086292
 21
-9459.912936071038
 31
0.0
  0
LINE
  5
191
330
56
100
AcDbEntity
  8
_0-0_
  6
Continuous
 62
     8
370
    18
100
AcDbLine
 10
6689.61660715563
 20
-8704.384674660168
 30
0.0
 11
8233.645061585066
 21
-8704.384674660168
 31
0.0
  0
LINE
  5
192
330
56
100
AcDbEntity
  8
_0-0_
  6
Continuous
 62
     8
370
    18
100
AcDbLine
 10
7145.571318530777
 20
-8704.384674660168
 30
0.0
 11
7145.571318530777
 21
-8837.214456279782
 31
0.0
  0
LINE
  5
193
330
56
100
AcDbEntity
  8
_0-0_
  6
Continuous
 62
     8
370
    18
100
AcDbLine
 10
6689.61660715563
 20
-10977.56384521432
 30
0.0
 11
6689.61660715563
 21
-8640.324921822337
 31
0.0
  0
LINE
  5
194
330
56
100
AcDbEntity
  8
_0-0_
  6
Continuous
 62
     8
370
    18
100
AcDbLine
 10
6388.158946742312
 20
-9247.950518592925
 30
0.0
 11
6460.69719627927
 21
-9247.950518592925
 31
0.0
  0
LINE
  5
195
330
56
100
AcDbEntity
  8
_0-0_
  6
Continuous
 62
     8
370
    18
100
AcDbLine
 10
6460.69719627927
 20
-8840.982677034948
 30
0.0
 11
6460.69719627927
 21
-10775.96403481292
 31
0.0
  0
LINE
  5
196
330
56
100
AcDbEntity
  8
_0-0_
  6
Continuous
 62
     8
370
    18
100
AcDbLine
 10
8558.654101718175
 20
-10625.23520460626
 30
0.0
 11
8558.654101718175
 21
-9019.973162905355
 31
0.0
  0
LINE
  5
197
330
56
100
AcDbEntity
  8
_0-0_
  6
Continuous
 62
     8
370
    18
100
AcDbLine
 10
8189.368467711867
 20
-9179.180489811139
 30
0.0
 11
8445.607479063174
 21
-9179.180489811139
 31
0.0
  0
LINE
  5
198
330
56
100
AcDbEntity
  8
_0-0_
  6
Continuous
 62
     8
370
    18
100
AcDbLine
 10
8445.607479063174
 20
-9076.496474232854
 30
0.0
 11
8445.607479063174
 21
-10521.60913383918
 31
0.0
  0
LINE
  5
199
330
56
100
AcDbEntity
  8
_0-0_
  6
Continuous
 62
     8
370
    18
100
AcDbLine
 10
8189.368467711867
 20
-10600.74176969767
 30
0.0
 11
8189.368467711867
 21
-9090.627302064726
 31
0.0
  0
LINE
  5
19A
330
56
100
AcDbEntity
  8
_0-0_
  6
Continuous
 62
     8
370
    18
100
AcDbLine
 10
-1076.686369242409
 20
-8635.614645878379
 30
0.0
 11
6364.607567022534
 21
-8635.614645878379
 31
0.0
  0
LINE
  5
19B
330
56
100
AcDbEntity
  8
_0-0_
  6
Continuous
 62
     8
370
    18
100
AcDbLine
 10
8075.37978986808
 20
-8837.214456279782
 30
0.0
 11
8233.645061585066
 21
-8704.384674660168
 31
0.0
  0
SPLINE
  5
19C
330
56
100
AcDbEntity
  8
_0-0_
  6
Continuous
 62
     8
370
    18
100
AcDbSpline
210
0.0
220
0.0
230
1.0
 70
     8
 71
     2
 72
     7
 73
     4
 74
     0
 42
0.000000001
 43
0.0000000000001
 40
0.0
 40
0.0
 40
0.0
 40
1.0
 40
2.0
 40
2.0
 40
2.0
 10
8075.497432415451
 20
-10780.32335990255
 30
0.0
 10
8137.957357083744
 20
-10738.6725561282
 30
0.0
 10
8199.248657084923
 20
-10601.60504311859
 30
0.0
 10
8188.646917028957
 20
-10527.28388359855
 30
0.0
  0
SPLINE
  5
19D
330
56
100
AcDbEntity
  8
_0-0_
  6
Continuous
 62
     8
370
    18
100
AcDbSpline
210
0.0
220
0.0
230
1.0
 70
     8
 71
     2
 72
     6
 73
     3
 74
     0
 42
0.000000001
 43
0.0000000000001
 40
0.0
 40
0.0
 40
0.0
 40
1.0
 40
1.0
 40
1.0
 10
8357.759239674639
 20
-10977.38887430695
 30
0.0
 10
8503.785279243772
 20
-10826.77624257812
 30
0.0
 10
8559.044860671826
 20
-10624.40493105171
 30
0.0
  0
SPLINE
  5
19E
330
56
100
AcDbEntity
  8
_0-0_
  6
Continuous
 62
     8
370
    18
100
AcDbSpline
210
0.0
220
0.0
230
1.0
 70
     8
 71
     2
 72
     7
 73
     4
 74
     0
 42
0.000000001
 43
0.0000000000001
 40
0.0
 40
0.0
 40
0.0
 40
1.0
 40
2.0
 40
2.0
 40
2.0
 10
8233.632706811726
 20
-10912.45656018407
 30
0.0
 10
8328.659939612817
 20
-10850.61793283263
 30
0.0
 10
8440.716173790852
 20
-10653.48811873033
 30
0.0
 10
8445.236668978563
 20
-10540.20195042281
 30
0.0
  0
SPLINE
  5
19F
330
56
100
AcDbEntity
  8
_0-0_
  6
Continuous
 62
     8
370
    18
100
AcDbSpline
210
0.0
220
0.0
230
1.0
 70
     8
 71
     2
 72
     7
 73
     4
 74
     0
 42
0.000000001
 43
0.0000000000001
 40
0.0
 40
0.0
 40
0.0
 40
1.0
 40
2.0
 40
2.0
 40
2.0
 10
8188.646897803568
 20
-9090.605018213251
 30
0.0
 10
8199.248529240866
 20
-9016.284898488835
 30
0.0
 10
8137.959170636221
 20
-8879.218806176532
 30
0.0
 10
8075.500754861893
 20
-8837.567622712615
 30
0.0
  0
SPLINE
  5
1A0
330
56
100
AcDbEntity
  8
_0-0_
  6
Continuous
 62
     8
370
    18
100
AcDbSpline
210
0.0
220
0.0
230
1.0
 70
     8
 71
     2
 72
     6
 73
     3
 74
     0
 42
0.000000001
 43
0.0000000000001
 40
0.0
 40
0.0
 40
0.0
 40
1.0
 40
1.0
 40
1.0
 10
8559.042572688684
 20
-8993.475457122151
 30
0.0
 10
8503.781156625912
 20
-8791.105905452378
 30
0.0
 10
8357.754779503652
 20
-8640.495292503509
 30
0.0
  0
SPLINE
  5
1A1
330
56
100
AcDbEntity
  8
_0-0_
  6
Continuous
 62
     8
370
    18
100
AcDbSpline
210
0.0
220
0.0
230
1.0
 70
     8
 71
     2
 72
     7
 73
     4
 74
     0
 42
0.000000001
 43
0.0000000000001
 40
0.0
 40
0.0
 40
0.0
 40
1.0
 40
2.0
 40
2.0
 40
2.0
 10
8445.237051796666
 20
-9076.754357543838
 30
0.0
 10
8440.718844210312
 20
-8963.466954934012
 30
0.0
 10
8328.664629358484
 20
-8766.333365473887
 30
0.0
 10
8233.637140818766
 20
-8704.493037113609
 30
0.0
  0
ENDBLK
  5
58
330
56
100
AcDbEntity
  8
0
100
AcDbBlockEnd
  0
BLOCK
  5
5A
330
59
100
AcDbEntity
  8
0
100
AcDbBlockBegin
  2
*D11
 70
     1
 10
0.0
 20
0.0
 30
0.0
  3
*D11
  1

  0
LINE
  5
1A2
330
59
100
AcDbEntity
  8
寸法
  6
Continuous
 62
     0
370
    -2
100
AcDbLine
 10
-5216.614059838387
 20
-6645.61464587838
 30
0.0
 11
-4916.614059838279
 21
-6645.61464587838
 31
0.0
  0
LINE
  5
1A3
330
59
100
AcDbEntity
  8
寸法
  6
Continuous
 62
     0
370
    -2
100
AcDbLine
 10
-5216.614059838387
 20
-10005.61464587838
 30
0.0
 11
-4916.614059838279
 21
-10005.61464587838
 31
0.0
  0
LINE
  5
1A4
330
59
100
AcDbEntity
  8
寸法
  6
Continuous
 62
     0
370
    -2
100
AcDbLine
 10
-5216.614059838349
 20
-6963.11464587838
 30
0.0
 11
-5216.614059838349
 21
-8015.937493100603
 31
0.0
  0
LINE
  5
1A5
330
59
100
AcDbEntity
  8
寸法
  6
Continuous
 62
     0
370
    -2
100
AcDbLine
 10
-5216.614059838349
 20
-9688.11464587838
 30
0.0
 11
-5216.614059838349
 21
-8635.291798656159
 31
0.0
  0
INSERT
  5
1A6
330
59
100
AcDbEntity
  8
寸法
 62
     0
370
    -2
100
AcDbBlockReference
  2
VW_SLASH
 10
-5216.614059838349
 20
-6645.61464587838
 30
0.0
 41
317.5
 42
317.5
 43
317.5
 50
90.0
  0
INSERT
  5
1A7
330
59
100
AcDbEntity
  8
寸法
 62
     0
370
    -2
100
AcDbBlockReference
  2
VW_SLASH
 10
-5216.614059838349
 20
-10005.61464587838
 30
0.0
 41
317.5
 42
317.5
 43
317.5
 50
270.0
  0
MTEXT
  5
1AB
330
59
100
AcDbEntity
  8
寸法
 62
     0
370
     5
100
AcDbMText
 10
-5216.614059838349
 20
-8325.61464587838
 30
0.0
 40
194.0277777777778
 41
0.0
 71
     5
 72
     1
  1
\A1;3360
  7
ＭＳ Ｐゴシック
 11
0.0
 21
1.0
 31
0.0
 73
     1
 44
1.0
  0
POINT
  5
1AF
330
59
100
AcDbEntity
  8
Defpoints
 62
     0
100
AcDbPoint
 10
-5416.614059838349
 20
-6645.61464587838
 30
0.0
  0
POINT
  5
1B0
330
59
100
AcDbEntity
  8
Defpoints
 62
     0
100
AcDbPoint
 10
-5416.614059838349
 20
-10005.61464587838
 30
0.0
  0
POINT
  5
1B1
330
59
100
AcDbEntity
  8
Defpoints
 62
     0
100
AcDbPoint
 10
-5216.614059838349
 20
-10005.61464587838
 30
0.0
  0
ENDBLK
  5
5B
330
59
100
AcDbEntity
  8
0
100
AcDbBlockEnd
  0
BLOCK
  5
5D
330
5C
100
AcDbEntity
  8
0
100
AcDbBlockBegin
  2
*D12
 70
     1
 10
0.0
 20
0.0
 30
0.0
  3
*D12
  1

  0
LINE
  5
1B4
330
5C
100
AcDbEntity
  8
寸法
  6
Continuous
 62
     0
370
    -2
100
AcDbLine
 10
8021.081768672291
 20
-7420.61464587838
 30
0.0
 11
9321.081768672424
 21
-7420.61464587838
 31
0.0
  0
LINE
  5
1B5
330
5C
100
AcDbEntity
  8
寸法
  6
Continuous
 62
     0
370
    -2
100
AcDbLine
 10
8021.081768672291
 20
-11700.61464587837
 30
0.0
 11
9321.081768672424
 21
-11700.61464587837
 31
0.0
  0
LINE
  5
1B6
330
5C
100
AcDbEntity
  8
寸法
  6
Continuous
 62
     0
370
    -2
100
AcDbLine
 10
9021.081768672355
 20
-7738.11464587838
 30
0.0
 11
9021.081768672355
 21
-9248.706173656154
 31
0.0
  0
LINE
  5
1B7
330
5C
100
AcDbEntity
  8
寸法
  6
Continuous
 62
     0
370
    -2
100
AcDbLine
 10
9021.081768672355
 20
-11383.11464587837
 30
0.0
 11
9021.081768672355
 21
-9872.523118100597
 31
0.0
  0
INSERT
  5
1B8
330
5C
100
AcDbEntity
  8
寸法
 62
     0
370
    -2
100
AcDbBlockReference
  2
VW_SLASH
 10
9021.081768672355
 20
-7420.61464587838
 30
0.0
 41
317.5
 42
317.5
 43
317.5
 50
90.0
  0
INSERT
  5
1B9
330
5C
100
AcDbEntity
  8
寸法
 62
     0
370
    -2
100
AcDbBlockReference
  2
VW_SLASH
 10
9021.081768672355
 20
-11700.61464587837
 30
0.0
 41
317.5
 42
317.5
 43
317.5
 50
270.0
  0
MTEXT
  5
1BD
330
5C
100
AcDbEntity
  8
寸法
 62
     0
370
     5
100
AcDbMText
 10
9021.081768672355
 20
-9560.614645878375
 30
0.0
 40
194.0277777777778
 41
0.0
 71
     5
 72
     1
  1
\A1;4280
  7
ＭＳ Ｐゴシック
 11
0.0
 21
1.0
 31
0.0
 73
     1
 44
1.0
  0
POINT
  5
1C1
330
5C
100
AcDbEntity
  8
Defpoints
 62
     0
100
AcDbPoint
 10
6901.081768672355
 20
-7420.61464587838
 30
0.0
  0
POINT
  5
1C2
330
5C
100
AcDbEntity
  8
Defpoints
 62
     0
100
AcDbPoint
 10
6901.081768672355
 20
-11700.61464587837
 30
0.0
  0
POINT
  5
1C3
330
5C
100
AcDbEntity
  8
Defpoints
 62
     0
100
AcDbPoint
 10
9021.081768672355
 20
-11700.61464587837
 30
0.0
  0
ENDBLK
  5
5E
330
5C
100
AcDbEntity
  8
0
100
AcDbBlockEnd
  0
BLOCK
  5
60
330
5F
100
AcDbEntity
  8
0
100
AcDbBlockBegin
  2
グループ-3
 70
     0
 10
0.0
 20
0.0
 30
0.0
  3
グループ-3
  1

  0
LINE
  5
1C6
330
5F
100
AcDbEntity
  8
_0-0_
  6
Continuous
 62
     8
370
    18
100
AcDbLine
 10
-4468.532345970622
 20
-5184.663371330617
 30
0.0
 11
3078.271771438981
 21
-5184.663371330617
 31
0.0
  0
LINE
  5
1C7
330
5F
100
AcDbEntity
  8
_0-0_
  6
Continuous
 62
     8
370
    18
100
AcDbLine
 10
3303.42296156017
 20
-5285.463276531315
 30
0.0
 11
5071.660550922012
 21
-5285.463276531315
 31
0.0
  0
LINE
  5
1C8
330
5F
100
AcDbEntity
  8
_0-0_
  6
Continuous
 62
     8
370
    18
100
AcDbLine
 10
3182.839897394843
 20
-5083.863466129914
 30
0.0
 11
3307.19118231534
 21
-5083.863466129914
 31
0.0
  0
LINE
  5
1C9
330
5F
100
AcDbEntity
  8
_0-0_
  6
Continuous
 62
     8
370
    18
100
AcDbLine
 10
3403.280811572077
 20
-5088.573742073869
 30
0.0
 11
4789.043994284527
 21
-5088.573742073869
 31
0.0
  0
LINE
  5
1CA
330
5F
100
AcDbEntity
  8
_0-0_
  6
Continuous
 62
     8
370
    18
100
AcDbLine
 10
4720.273965502739
 20
-4464.933207093826
 30
0.0
 11
4903.032672128315
 21
-4464.933207093826
 31
0.0
  0
LINE
  5
1CB
330
5F
100
AcDbEntity
  8
_0-0_
  6
Continuous
 62
     8
370
    18
100
AcDbLine
 10
3403.280811572077
 20
-5221.403523693488
 30
0.0
 11
4947.309266001514
 21
-5221.403523693488
 31
0.0
  0
LINE
  5
1CC
330
5F
100
AcDbEntity
  8
_0-0_
  6
Continuous
 62
     8
370
    18
100
AcDbLine
 10
3859.235522947224
 20
-5221.403523693488
 30
0.0
 11
3859.235522947224
 21
-5088.573742073869
 31
0.0
  0
LINE
  5
1CD
330
5F
100
AcDbEntity
  8
_0-0_
  6
Continuous
 62
     8
370
    18
100
AcDbLine
 10
3101.823151158759
 20
-4677.837679760732
 30
0.0
 11
3174.361400695717
 21
-4677.837679760732
 31
0.0
  0
LINE
  5
1CE
330
5F
100
AcDbEntity
  8
_0-0_
  6
Continuous
 62
     8
370
    18
100
AcDbLine
 10
4903.032672128315
 20
-4745.665653353733
 30
0.0
 11
5159.271683479621
 21
-4745.665653353733
 31
0.0
  0
LINE
  5
1CF
330
5F
100
AcDbEntity
  8
_0-0_
  6
Continuous
 62
     8
370
    18
100
AcDbLine
 10
-4363.022164825961
 20
-5289.231497286481
 30
0.0
 11
3078.271771438981
 21
-5289.231497286481
 31
0.0
  0
LINE
  5
1D0
330
5F
100
AcDbEntity
  8
_0-0_
  6
Continuous
 62
     8
370
    18
100
AcDbLine
 10
4789.043994284527
 20
-5088.573742073869
 30
0.0
 11
4947.309266001514
 21
-5221.403523693488
 31
0.0
  0
LINE
  5
1D1
330
5F
100
AcDbEntity
  8
_0-0_
  6
Continuous
 62
     8
370
    18
100
AcDbLine
 10
-4468.532345970622
 20
-5184.663371330617
 30
0.0
 11
-4468.532345970622
 21
-3049.024258340036
 31
0.0
  0
LINE
  5
1D2
330
5F
100
AcDbEntity
  8
_0-0_
  6
Continuous
 62
     8
370
    18
100
AcDbLine
 10
-4468.532345970622
 20
-3049.024258340036
 30
0.0
 11
3078.271771438981
 21
-3049.024258340036
 31
0.0
  0
LINE
  5
1D3
330
5F
100
AcDbEntity
  8
_0-0_
  6
Continuous
 62
     8
370
    18
100
AcDbLine
 10
2968.993369539147
 20
-3049.024258340036
 30
0.0
 11
2968.993369539147
 21
-5184.663371330617
 31
0.0
  0
LINE
  5
1D4
330
5F
100
AcDbEntity
  8
_0-0_
  6
Continuous
 62
     8
370
    18
100
AcDbLine
 10
-4363.022164825961
 20
-5289.231497286481
 30
0.0
 11
-4363.022164825961
 21
-2943.514077195374
 31
0.0
  0
LINE
  5
1D5
330
5F
100
AcDbEntity
  8
_0-0_
  6
Continuous
 62
     8
370
    18
100
AcDbLine
 10
3078.271771438981
 20
-2943.514077195374
 30
0.0
 11
3078.271771438981
 21
-5289.231497286481
 31
0.0
  0
LINE
  5
1D6
330
5F
100
AcDbEntity
  8
_0-0_
  6
Continuous
 62
     8
370
    18
100
AcDbLine
 10
3303.42296156017
 20
-2948.224353139333
 30
0.0
 11
5071.660550922012
 21
-2948.224353139333
 31
0.0
  0
LINE
  5
1D7
330
5F
100
AcDbEntity
  8
_0-0_
  6
Continuous
 62
     8
370
    18
100
AcDbLine
 10
3182.839897394843
 20
-3148.882108351944
 30
0.0
 11
3307.19118231534
 21
-3148.882108351944
 31
0.0
  0
LINE
  5
1D8
330
5F
100
AcDbEntity
  8
_0-0_
  6
Continuous
 62
     8
370
    18
100
AcDbLine
 10
3307.19118231534
 20
-2948.224353139333
 30
0.0
 11
3307.19118231534
 21
-5285.463276531315
 31
0.0
  0
LINE
  5
1D9
330
5F
100
AcDbEntity
  8
_0-0_
  6
Continuous
 62
     8
370
    18
100
AcDbLine
 10
3403.280811572077
 20
-3145.113887596778
 30
0.0
 11
4789.043994284527
 21
-3145.113887596778
 31
0.0
  0
LINE
  5
1DA
330
5F
100
AcDbEntity
  8
_0-0_
  6
Continuous
 62
     8
370
    18
100
AcDbLine
 10
4720.273965502739
 20
-3767.812367388033
 30
0.0
 11
4903.032672128315
 21
-3767.812367388033
 31
0.0
  0
LINE
  5
1DB
330
5F
100
AcDbEntity
  8
_0-0_
  6
Continuous
 62
     8
370
    18
100
AcDbLine
 10
4720.273965502739
 20
-4464.933207093826
 30
0.0
 11
4720.273965502739
 21
-3767.812367388033
 31
0.0
  0
LINE
  5
1DC
330
5F
100
AcDbEntity
  8
_0-0_
  6
Continuous
 62
     8
370
    18
100
AcDbLine
 10
3403.280811572077
 20
-3012.284105977164
 30
0.0
 11
4947.309266001514
 21
-3012.284105977164
 31
0.0
  0
LINE
  5
1DD
330
5F
100
AcDbEntity
  8
_0-0_
  6
Continuous
 62
     8
370
    18
100
AcDbLine
 10
3859.235522947224
 20
-3012.284105977164
 30
0.0
 11
3859.235522947224
 21
-3145.113887596778
 31
0.0
  0
LINE
  5
1DE
330
5F
100
AcDbEntity
  8
_0-0_
  6
Continuous
 62
     8
370
    18
100
AcDbLine
 10
3403.280811572077
 20
-5285.463276531315
 30
0.0
 11
3403.280811572077
 21
-2948.224353139333
 31
0.0
  0
LINE
  5
1DF
330
5F
100
AcDbEntity
  8
_0-0_
  6
Continuous
 62
     8
370
    18
100
AcDbLine
 10
3101.823151158759
 20
-3555.84994990992
 30
0.0
 11
3174.361400695717
 21
-3555.84994990992
 31
0.0
  0
LINE
  5
1E0
330
5F
100
AcDbEntity
  8
_0-0_
  6
Continuous
 62
     8
370
    18
100
AcDbLine
 10
3174.361400695717
 20
-3148.882108351944
 30
0.0
 11
3174.361400695717
 21
-5083.863466129914
 31
0.0
  0
LINE
  5
1E1
330
5F
100
AcDbEntity
  8
_0-0_
  6
Continuous
 62
     8
370
    18
100
AcDbLine
 10
5272.318306134623
 20
-4933.134635923257
 30
0.0
 11
5272.318306134623
 21
-3327.87259422235
 31
0.0
  0
LINE
  5
1E2
330
5F
100
AcDbEntity
  8
_0-0_
  6
Continuous
 62
     8
370
    18
100
AcDbLine
 10
4903.032672128315
 20
-3487.079921128134
 30
0.0
 11
5159.271683479621
 21
-3487.079921128134
 31
0.0
  0
LINE
  5
1E3
330
5F
100
AcDbEntity
  8
_0-0_
  6
Continuous
 62
     8
370
    18
100
AcDbLine
 10
5159.271683479621
 20
-3384.395905549849
 30
0.0
 11
5159.271683479621
 21
-4829.508565156181
 31
0.0
  0
LINE
  5
1E4
330
5F
100
AcDbEntity
  8
_0-0_
  6
Continuous
 62
     8
370
    18
100
AcDbLine
 10
4903.032672128315
 20
-4908.641201014671
 30
0.0
 11
4903.032672128315
 21
-3398.526733381721
 31
0.0
  0
LINE
  5
1E5
330
5F
100
AcDbEntity
  8
_0-0_
  6
Continuous
 62
     8
370
    18
100
AcDbLine
 10
-4363.022164825961
 20
-2943.514077195374
 30
0.0
 11
3078.271771438981
 21
-2943.514077195374
 31
0.0
  0
LINE
  5
1E6
330
5F
100
AcDbEntity
  8
_0-0_
  6
Continuous
 62
     8
370
    18
100
AcDbLine
 10
4789.043994284527
 20
-3145.113887596778
 30
0.0
 11
4947.309266001514
 21
-3012.284105977164
 31
0.0
  0
SPLINE
  5
1E7
330
5F
100
AcDbEntity
  8
_0-0_
  6
Continuous
 62
     8
370
    18
100
AcDbSpline
210
0.0
220
0.0
230
1.0
 70
     8
 71
     2
 72
     7
 73
     4
 74
     0
 42
0.000000001
 43
0.0000000000001
 40
0.0
 40
0.0
 40
0.0
 40
1.0
 40
2.0
 40
2.0
 40
2.0
 10
4789.161636831898
 20
-5088.222791219551
 30
0.0
 10
4851.621561500191
 20
-5046.571987445194
 30
0.0
 10
4912.912861501371
 20
-4909.504474435592
 30
0.0
 10
4902.311121445404
 20
-4835.183314915545
 30
0.0
  0
SPLINE
  5
1E8
330
5F
100
AcDbEntity
  8
_0-0_
  6
Continuous
 62
     8
370
    18
100
AcDbSpline
210
0.0
220
0.0
230
1.0
 70
     8
 71
     2
 72
     6
 73
     3
 74
     0
 42
0.000000001
 43
0.0000000000001
 40
0.0
 40
0.0
 40
0.0
 40
1.0
 40
1.0
 40
1.0
 10
5071.423444091086
 20
-5285.288305623949
 30
0.0
 10
5217.449483660219
 20
-5134.675673895122
 30
0.0
 10
5272.709065088273
 20
-4932.304362368705
 30
0.0
  0
SPLINE
  5
1E9
330
5F
100
AcDbEntity
  8
_0-0_
  6
Continuous
 62
     8
370
    18
100
AcDbSpline
210
0.0
220
0.0
230
1.0
 70
     8
 71
     2
 72
     7
 73
     4
 74
     0
 42
0.000000001
 43
0.0000000000001
 40
0.0
 40
0.0
 40
0.0
 40
1.0
 40
2.0
 40
2.0
 40
2.0
 10
4947.296911228173
 20
-5220.355991501064
 30
0.0
 10
5042.324144029264
 20
-5158.517364149632
 30
0.0
 10
5154.380378207299
 20
-4961.387550047327
 30
0.0
 10
5158.90087339501
 20
-4848.101381739808
 30
0.0
  0
SPLINE
  5
1EA
330
5F
100
AcDbEntity
  8
_0-0_
  6
Continuous
 62
     8
370
    18
100
AcDbSpline
210
0.0
220
0.0
230
1.0
 70
     8
 71
     2
 72
     7
 73
     4
 74
     0
 42
0.000000001
 43
0.0000000000001
 40
0.0
 40
0.0
 40
0.0
 40
1.0
 40
2.0
 40
2.0
 40
2.0
 10
4902.311102220016
 20
-3398.504449530247
 30
0.0
 10
4912.912733657313
 20
-3324.184329805831
 30
0.0
 10
4851.623375052668
 20
-3187.118237493527
 30
0.0
 10
4789.164959278341
 20
-3145.467054029611
 30
0.0
  0
SPLINE
  5
1EB
330
5F
100
AcDbEntity
  8
_0-0_
  6
Continuous
 62
     8
370
    18
100
AcDbSpline
210
0.0
220
0.0
230
1.0
 70
     8
 71
     2
 72
     6
 73
     3
 74
     0
 42
0.000000001
 43
0.0000000000001
 40
0.0
 40
0.0
 40
0.0
 40
1.0
 40
1.0
 40
1.0
 10
5272.706777105132
 20
-3301.374888439147
 30
0.0
 10
5217.445361042359
 20
-3099.005336769373
 30
0.0
 10
5071.418983920099
 20
-2948.394723820504
 30
0.0
  0
SPLINE
  5
1EC
330
5F
100
AcDbEntity
  8
_0-0_
  6
Continuous
 62
     8
370
    18
100
AcDbSpline
210
0.0
220
0.0
230
1.0
 70
     8
 71
     2
 72
     7
 73
     4
 74
     0
 42
0.000000001
 43
0.0000000000001
 40
0.0
 40
0.0
 40
0.0
 40
1.0
 40
2.0
 40
2.0
 40
2.0
 10
5158.901256213114
 20
-3384.653788860833
 30
0.0
 10
5154.38304862676
 20
-3271.366386251008
 30
0.0
 10
5042.328833774931
 20
-3074.232796790883
 30
0.0
 10
4947.301345235213
 20
-3012.392468430604
 30
0.0
  0
ENDBLK
  5
61
330
5F
100
AcDbEntity
  8
0
100
AcDbBlockEnd
  0
BLOCK
  5
63
330
62
100
AcDbEntity
  8
0
100
AcDbBlockBegin
  2
グループ-4
 70
     0
 10
0.0
 20
0.0
 30
0.0
  3
グループ-4
  1

  0
LINE
  5
1ED
330
62
100
AcDbEntity
  8
_0-0_
  6
Continuous
 62
     8
370
    18
100
AcDbLine
 10
-4468.532345970622
 20
-2284.663371330615
 30
0.0
 11
3078.271771438981
 21
-2284.663371330615
 31
0.0
  0
LINE
  5
1EE
330
62
100
AcDbEntity
  8
_0-0_
  6
Continuous
 62
     8
370
    18
100
AcDbLine
 10
3303.42296156017
 20
-2385.463276531313
 30
0.0
 11
5071.660550922012
 21
-2385.463276531313
 31
0.0
  0
LINE
  5
1EF
330
62
100
AcDbEntity
  8
_0-0_
  6
Continuous
 62
     8
370
    18
100
AcDbLine
 10
3182.839897394843
 20
-2183.863466129912
 30
0.0
 11
3307.19118231534
 21
-2183.863466129912
 31
0.0
  0
LINE
  5
1F0
330
62
100
AcDbEntity
  8
_0-0_
  6
Continuous
 62
     8
370
    18
100
AcDbLine
 10
3403.280811572077
 20
-2188.573742073866
 30
0.0
 11
4789.043994284527
 21
-2188.573742073866
 31
0.0
  0
LINE
  5
1F1
330
62
100
AcDbEntity
  8
_0-0_
  6
Continuous
 62
     8
370
    18
100
AcDbLine
 10
4720.273965502739
 20
-1564.933207093824
 30
0.0
 11
4903.032672128315
 21
-1564.933207093824
 31
0.0
  0
LINE
  5
1F2
330
62
100
AcDbEntity
  8
_0-0_
  6
Continuous
 62
     8
370
    18
100
AcDbLine
 10
3403.280811572077
 20
-2321.403523693486
 30
0.0
 11
4947.309266001514
 21
-2321.403523693486
 31
0.0
  0
LINE
  5
1F3
330
62
100
AcDbEntity
  8
_0-0_
  6
Continuous
 62
     8
370
    18
100
AcDbLine
 10
3859.235522947224
 20
-2321.403523693486
 30
0.0
 11
3859.235522947224
 21
-2188.573742073866
 31
0.0
  0
LINE
  5
1F4
330
62
100
AcDbEntity
  8
_0-0_
  6
Continuous
 62
     8
370
    18
100
AcDbLine
 10
3101.823151158759
 20
-1777.837679760729
 30
0.0
 11
3174.361400695717
 21
-1777.837679760729
 31
0.0
  0
LINE
  5
1F5
330
62
100
AcDbEntity
  8
_0-0_
  6
Continuous
 62
     8
370
    18
100
AcDbLine
 10
4903.032672128315
 20
-1845.66565335373
 30
0.0
 11
5159.271683479621
 21
-1845.66565335373
 31
0.0
  0
LINE
  5
1F6
330
62
100
AcDbEntity
  8
_0-0_
  6
Continuous
 62
     8
370
    18
100
AcDbLine
 10
-4363.022164825961
 20
-2389.231497286479
 30
0.0
 11
3078.271771438981
 21
-2389.231497286479
 31
0.0
  0
LINE
  5
1F7
330
62
100
AcDbEntity
  8
_0-0_
  6
Continuous
 62
     8
370
    18
100
AcDbLine
 10
4789.043994284527
 20
-2188.573742073866
 30
0.0
 11
4947.309266001514
 21
-2321.403523693486
 31
0.0
  0
LINE
  5
1F8
330
62
100
AcDbEntity
  8
_0-0_
  6
Continuous
 62
     8
370
    18
100
AcDbLine
 10
-4468.532345970622
 20
-2284.663371330615
 30
0.0
 11
-4468.532345970622
 21
-149.0242583400367
 31
0.0
  0
LINE
  5
1F9
330
62
100
AcDbEntity
  8
_0-0_
  6
Continuous
 62
     8
370
    18
100
AcDbLine
 10
-4468.532345970622
 20
-149.0242583400367
 30
0.0
 11
3078.271771438981
 21
-149.0242583400367
 31
0.0
  0
LINE
  5
1FA
330
62
100
AcDbEntity
  8
_0-0_
  6
Continuous
 62
     8
370
    18
100
AcDbLine
 10
2968.993369539147
 20
-149.0242583400367
 30
0.0
 11
2968.993369539147
 21
-2284.663371330615
 31
0.0
  0
LINE
  5
1FB
330
62
100
AcDbEntity
  8
_0-0_
  6
Continuous
 62
     8
370
    18
100
AcDbLine
 10
-4363.022164825961
 20
-2389.231497286479
 30
0.0
 11
-4363.022164825961
 21
-43.51407719537461
 31
0.0
  0
LINE
  5
1FC
330
62
100
AcDbEntity
  8
_0-0_
  6
Continuous
 62
     8
370
    18
100
AcDbLine
 10
3078.271771438981
 20
-43.51407719537461
 30
0.0
 11
3078.271771438981
 21
-2389.231497286479
 31
0.0
  0
LINE
  5
1FD
330
62
100
AcDbEntity
  8
_0-0_
  6
Continuous
 62
     8
370
    18
100
AcDbLine
 10
3303.42296156017
 20
-48.22435313933316
 30
0.0
 11
5071.660550922012
 21
-48.22435313933316
 31
0.0
  0
LINE
  5
1FE
330
62
100
AcDbEntity
  8
_0-0_
  6
Continuous
 62
     8
370
    18
100
AcDbLine
 10
3182.839897394843
 20
-248.8821083519441
 30
0.0
 11
3307.19118231534
 21
-248.8821083519441
 31
0.0
  0
LINE
  5
1FF
330
62
100
AcDbEntity
  8
_0-0_
  6
Continuous
 62
     8
370
    18
100
AcDbLine
 10
3307.19118231534
 20
-48.22435313933316
 30
0.0
 11
3307.19118231534
 21
-2385.463276531313
 31
0.0
  0
LINE
  5
200
330
62
100
AcDbEntity
  8
_0-0_
  6
Continuous
 62
     8
370
    18
100
AcDbLine
 10
3403.280811572077
 20
-245.113887596778
 30
0.0
 11
4789.043994284527
 21
-245.113887596778
 31
0.0
  0
LINE
  5
201
330
62
100
AcDbEntity
  8
_0-0_
  6
Continuous
 62
     8
370
    18
100
AcDbLine
 10
4720.273965502739
 20
-867.8123673880337
 30
0.0
 11
4903.032672128315
 21
-867.8123673880337
 31
0.0
  0
LINE
  5
202
330
62
100
AcDbEntity
  8
_0-0_
  6
Continuous
 62
     8
370
    18
100
AcDbLine
 10
4720.273965502739
 20
-1564.933207093824
 30
0.0
 11
4720.273965502739
 21
-867.8123673880337
 31
0.0
  0
LINE
  5
203
330
62
100
AcDbEntity
  8
_0-0_
  6
Continuous
 62
     8
370
    18
100
AcDbLine
 10
3403.280811572077
 20
-112.2841059771644
 30
0.0
 11
4947.309266001514
 21
-112.2841059771644
 31
0.0
  0
LINE
  5
204
330
62
100
AcDbEntity
  8
_0-0_
  6
Continuous
 62
     8
370
    18
100
AcDbLine
 10
3859.235522947224
 20
-112.2841059771644
 30
0.0
 11
3859.235522947224
 21
-245.113887596778
 31
0.0
  0
LINE
  5
205
330
62
100
AcDbEntity
  8
_0-0_
  6
Continuous
 62
     8
370
    18
100
AcDbLine
 10
3403.280811572077
 20
-2385.463276531313
 30
0.0
 11
3403.280811572077
 21
-48.22435313933316
 31
0.0
  0
LINE
  5
206
330
62
100
AcDbEntity
  8
_0-0_
  6
Continuous
 62
     8
370
    18
100
AcDbLine
 10
3101.823151158759
 20
-655.8499499099207
 30
0.0
 11
3174.361400695717
 21
-655.8499499099207
 31
0.0
  0
LINE
  5
207
330
62
100
AcDbEntity
  8
_0-0_
  6
Continuous
 62
     8
370
    18
100
AcDbLine
 10
3174.361400695717
 20
-248.8821083519441
 30
0.0
 11
3174.361400695717
 21
-2183.863466129912
 31
0.0
  0
LINE
  5
208
330
62
100
AcDbEntity
  8
_0-0_
  6
Continuous
 62
     8
370
    18
100
AcDbLine
 10
5272.318306134623
 20
-2033.134635923254
 30
0.0
 11
5272.318306134623
 21
-427.8725942223508
 31
0.0
  0
LINE
  5
209
330
62
100
AcDbEntity
  8
_0-0_
  6
Continuous
 62
     8
370
    18
100
AcDbLine
 10
4903.032672128315
 20
-587.0799211281345
 30
0.0
 11
5159.271683479621
 21
-587.0799211281345
 31
0.0
  0
LINE
  5
20A
330
62
100
AcDbEntity
  8
_0-0_
  6
Continuous
 62
     8
370
    18
100
AcDbLine
 10
5159.271683479621
 20
-484.3959055498497
 30
0.0
 11
5159.271683479621
 21
-1929.508565156179
 31
0.0
  0
LINE
  5
20B
330
62
100
AcDbEntity
  8
_0-0_
  6
Continuous
 62
     8
370
    18
100
AcDbLine
 10
4903.032672128315
 20
-2008.641201014669
 30
0.0
 11
4903.032672128315
 21
-498.5267333817217
 31
0.0
  0
LINE
  5
20C
330
62
100
AcDbEntity
  8
_0-0_
  6
Continuous
 62
     8
370
    18
100
AcDbLine
 10
-4363.022164825961
 20
-43.51407719537461
 30
0.0
 11
3078.271771438981
 21
-43.51407719537461
 31
0.0
  0
LINE
  5
20D
330
62
100
AcDbEntity
  8
_0-0_
  6
Continuous
 62
     8
370
    18
100
AcDbLine
 10
4789.043994284527
 20
-245.113887596778
 30
0.0
 11
4947.309266001514
 21
-112.2841059771644
 31
0.0
  0
SPLINE
  5
20E
330
62
100
AcDbEntity
  8
_0-0_
  6
Continuous
 62
     8
370
    18
100
AcDbSpline
210
0.0
220
0.0
230
1.0
 70
     8
 71
     2
 72
     7
 73
     4
 74
     0
 42
0.000000001
 43
0.0000000000001
 40
0.0
 40
0.0
 40
0.0
 40
1.0
 40
2.0
 40
2.0
 40
2.0
 10
4789.161636831898
 20
-2188.222791219549
 30
0.0
 10
4851.621561500191
 20
-2146.571987445192
 30
0.0
 10
4912.912861501371
 20
-2009.50447443559
 30
0.0
 10
4902.311121445404
 20
-1935.183314915543
 30
0.0
  0
SPLINE
  5
20F
330
62
100
AcDbEntity
  8
_0-0_
  6
Continuous
 62
     8
370
    18
100
AcDbSpline
210
0.0
220
0.0
230
1.0
 70
     8
 71
     2
 72
     6
 73
     3
 74
     0
 42
0.000000001
 43
0.0000000000001
 40
0.0
 40
0.0
 40
0.0
 40
1.0
 40
1.0
 40
1.0
 10
5071.423444091086
 20
-2385.288305623947
 30
0.0
 10
5217.449483660219
 20
-2234.675673895119
 30
0.0
 10
5272.709065088273
 20
-2032.304362368703
 30
0.0
  0
SPLINE
  5
210
330
62
100
AcDbEntity
  8
_0-0_
  6
Continuous
 62
     8
370
    18
100
AcDbSpline
210
0.0
220
0.0
230
1.0
 70
     8
 71
     2
 72
     7
 73
     4
 74
     0
 42
0.000000001
 43
0.0000000000001
 40
0.0
 40
0.0
 40
0.0
 40
1.0
 40
2.0
 40
2.0
 40
2.0
 10
4947.296911228173
 20
-2320.355991501061
 30
0.0
 10
5042.324144029264
 20
-2258.51736414963
 30
0.0
 10
5154.380378207299
 20
-2061.387550047325
 30
0.0
 10
5158.90087339501
 20
-1948.101381739806
 30
0.0
  0
SPLINE
  5
211
330
62
100
AcDbEntity
  8
_0-0_
  6
Continuous
 62
     8
370
    18
100
AcDbSpline
210
0.0
220
0.0
230
1.0
 70
     8
 71
     2
 72
     7
 73
     4
 74
     0
 42
0.000000001
 43
0.0000000000001
 40
0.0
 40
0.0
 40
0.0
 40
1.0
 40
2.0
 40
2.0
 40
2.0
 10
4902.311102220016
 20
-498.5044495302471
 30
0.0
 10
4912.912733657313
 20
-424.1843298058309
 30
0.0
 10
4851.623375052668
 20
-287.1182374935278
 30
0.0
 10
4789.164959278341
 20
-245.4670540296109
 30
0.0
  0
SPLINE
  5
212
330
62
100
AcDbEntity
  8
_0-0_
  6
Continuous
 62
     8
370
    18
100
AcDbSpline
210
0.0
220
0.0
230
1.0
 70
     8
 71
     2
 72
     6
 73
     3
 74
     0
 42
0.000000001
 43
0.0000000000001
 40
0.0
 40
0.0
 40
0.0
 40
1.0
 40
1.0
 40
1.0
 10
5272.706777105132
 20
-401.374888439147
 30
0.0
 10
5217.445361042359
 20
-199.0053367693735
 30
0.0
 10
5071.418983920099
 20
-48.3947238205045
 30
0.0
  0
SPLINE
  5
213
330
62
100
AcDbEntity
  8
_0-0_
  6
Continuous
 62
     8
370
    18
100
AcDbSpline
210
0.0
220
0.0
230
1.0
 70
     8
 71
     2
 72
     7
 73
     4
 74
     0
 42
0.000000001
 43
0.0000000000001
 40
0.0
 40
0.0
 40
0.0
 40
1.0
 40
2.0
 40
2.0
 40
2.0
 10
5158.901256213114
 20
-484.6537888608335
 30
0.0
 10
5154.38304862676
 20
-371.3663862510083
 30
0.0
 10
5042.328833774931
 20
-174.2327967908831
 30
0.0
 10
4947.301345235213
 20
-112.3924684306047
 30
0.0
  0
ENDBLK
  5
64
330
62
100
AcDbEntity
  8
0
100
AcDbBlockEnd
  0
BLOCK
  5
66
330
65
100
AcDbEntity
  8
0
100
AcDbBlockBegin
  2
*D15
 70
     1
 10
0.0
 20
0.0
 30
0.0
  3
*D15
  1

  0
LINE
  5
214
330
65
100
AcDbEntity
  8
寸法
  6
Continuous
 62
     0
370
    -2
100
AcDbLine
 10
-2026.254359492491
 20
5874.437644189348
 30
0.0
 11
-2321.092129854666
 21
5874.437644189348
 31
0.0
  0
LINE
  5
215
330
65
100
AcDbEntity
  8
寸法
  6
Continuous
 62
     0
370
    -2
100
AcDbLine
 10
-2026.254359492491
 20
4874.437644189348
 30
0.0
 11
-2321.092129854666
 21
4874.437644189348
 31
0.0
  0
LINE
  5
216
330
65
100
AcDbEntity
  8
寸法
  6
Continuous
 62
     0
370
    -2
100
AcDbLine
 10
-2021.092129854596
 20
5874.437644189348
 30
0.0
 11
-2021.092129854596
 21
5676.450699744903
 31
0.0
  0
LINE
  5
217
330
65
100
AcDbEntity
  8
寸法
  6
Continuous
 62
     0
370
    -2
100
AcDbLine
 10
-2021.092129854596
 20
4874.437644189348
 30
0.0
 11
-2021.092129854596
 21
5072.424588633792
 31
0.0
  0
LINE
  5
218
330
65
100
AcDbEntity
  8
寸法
  6
Continuous
 62
     0
370
    -2
100
AcDbLine
 10
-2021.092129854596
 20
6191.937644189348
 30
0.0
 11
-2021.092129854596
 21
6509.437644189348
 31
0.0
  0
LINE
  5
219
330
65
100
AcDbEntity
  8
寸法
  6
Continuous
 62
     0
370
    -2
100
AcDbLine
 10
-2021.092129854596
 20
4556.937644189348
 30
0.0
 11
-2021.092129854596
 21
4239.437644189348
 31
0.0
  0
INSERT
  5
21D
330
65
100
AcDbEntity
  8
寸法
 62
     0
370
    -2
100
AcDbBlockReference
  2
VW_SLASH
 10
-2021.092129854596
 20
5874.437644189348
 30
0.0
 41
317.5
 42
317.5
 43
317.5
 50
270.0
  0
INSERT
  5
221
330
65
100
AcDbEntity
  8
寸法
 62
     0
370
    -2
100
AcDbBlockReference
  2
VW_SLASH
 10
-2021.092129854596
 20
4874.437644189348
 30
0.0
 41
317.5
 42
317.5
 43
317.5
 50
90.0
  0
MTEXT
  5
222
330
65
100
AcDbEntity
  8
寸法
 62
     0
370
     5
100
AcDbMText
 10
-2021.092129854596
 20
5374.437644189348
 30
0.0
 40
194.0277777777778
 41
0.0
 71
     5
 72
     1
  1
\A1;1000
  7
ＭＳ Ｐゴシック
 11
0.0
 21
1.0
 31
0.0
 73
     1
 44
1.0
  0
POINT
  5
223
330
65
100
AcDbEntity
  8
Defpoints
 62
     0
100
AcDbPoint
 10
-1826.254359492529
 20
5874.437644189348
 30
0.0
  0
POINT
  5
224
330
65
100
AcDbEntity
  8
Defpoints
 62
     0
100
AcDbPoint
 10
-1826.254359492529
 20
4874.437644189348
 30
0.0
  0
POINT
  5
225
330
65
100
AcDbEntity
  8
Defpoints
 62
     0
100
AcDbPoint
 10
-2021.092129854596
 20
4874.437644189348
 30
0.0
  0
ENDBLK
  5
67
330
65
100
AcDbEntity
  8
0
100
AcDbBlockEnd
  0
BLOCK
  5
7A
330
79
100
AcDbEntity
  8
0
100
AcDbBlockBegin
  2
VW_SLASH
 70
     0
 10
0.0
 20
0.0
 30
0.0
  3
VW_SLASH
  1

  0
INSERT
  5
7C
330
79
100
AcDbEntity
  8
一般
  6
ByBlock
 62
     0
370
    -2
100
AcDbBlockReference
  2

 10
0.0
 20
0.0
 30
0.0
  0
LINE
  5
7D
330
79
100
AcDbEntity
  8
一般
  6
ByBlock
 62
     0
370
    -2
100
AcDbLine
 10
0.0
 20
0.0
 30
0.0
 11
-1.0
 21
0.0
 31
0.0
  0
POLYLINE
  5
7E
330
79
100
AcDbEntity
  8
一般
  6
Continuous
 62
     0
370
    20
100
AcDb2dPolyline
 66
     1
 10
0.0
 20
0.0
 30
0.0
 70
     4
 75
     5
  0
VERTEX
  5
7F
330
7E
100
AcDbEntity
  8
一般
  6
Continuous
 62
     0
370
    20
100
AcDbVertex
100
AcDb2dVertex
 10
0.3288668013086848
 20
0.3288668013086848
 30
0.0
  0
VERTEX
  5
80
330
7E
100
AcDbEntity
  8
一般
  6
Continuous
 62
     0
370
    20
100
AcDbVertex
100
AcDb2dVertex
 10
-0.3288668013086848
 20
-0.3288668013086848
 30
0.0
  0
SEQEND
  5
81
330
7E
100
AcDbEntity
  8
一般
  6
Continuous
 62
     0
370
    20
  0
ENDBLK
  5
7B
330
79
100
AcDbEntity
  8
0
100
AcDbBlockEnd
  0
BLOCK
  5
83
330
82
100
AcDbEntity
  8
0
100
AcDbBlockBegin
  2
VW_FILLEDARROW
 70
     0
 10
0.0
 20
0.0
 30
0.0
  3
VW_FILLEDARROW
  1

  0
INSERT
  5
85
330
82
100
AcDbEntity
  8
一般
  6
ByBlock
 62
     0
370
    -2
100
AcDbBlockReference
  2

 10
0.0
 20
0.0
 30
0.0
  0
POLYLINE
  5
86
102
{ACAD_REACTORS
330
8B
102
}
330
82
100
AcDbEntity
  8
一般
  6
Continuous
 62
     0
370
     5
100
AcDb2dPolyline
 66
     1
 10
0.0
 20
0.0
 30
0.0
 70
     5
 75
     5
  0
VERTEX
  5
87
330
86
100
AcDbEntity
  8
一般
  6
Continuous
 62
     0
370
     5
100
AcDbVertex
100
AcDb2dVertex
 10
-0.93017578125
 20
0.2492398494049262
 30
0.0
  0
VERTEX
  5
88
330
86
100
AcDbEntity
  8
一般
  6
Continuous
 62
     0
370
     5
100
AcDbVertex
100
AcDb2dVertex
 10
0.0
 20
0.0
 30
0.0
  0
VERTEX
  5
89
330
86
100
AcDbEntity
  8
一般
  6
Continuous
 62
     0
370
     5
100
AcDbVertex
100
AcDb2dVertex
 10
-0.9301757812499999
 20
-0.2492398494049264
 30
0.0
  0
SEQEND
  5
8A
330
86
100
AcDbEntity
  8
一般
  6
Continuous
 62
     0
370
     5
  0
HATCH
  5
8B
330
82
100
AcDbEntity
  8
一般
  6
Continuous
 62
     0
370
     0
100
AcDbHatch
 10
0.0
 20
0.0
 30
0.0
210
0.0
220
0.0
230
1.0
  2
SOLID
 70
     1
 71
     1
 91
        1
 92
        1
 93
        3
 72
     1
 10
-0.93017578125
 20
0.2492398494049262
 11
0.0
 21
0.0
 72
     1
 10
0.0
 20
0.0
 11
-0.9301757812499999
 21
-0.2492398494049264
 72
     1
 10
-0.9301757812499999
 20
-0.2492398494049264
 11
-0.93017578125
 21
0.2492398494049261
 97
        1
330
86
 75
     0
 76
     1
 98
        1
 10
0.0
 20
0.0
  0
ENDBLK
  5
84
330
82
100
AcDbEntity
  8
0
100
AcDbBlockEnd
  0
ENDSEC
  0
SECTION
  2
ENTITIES
  0
POLYLINE
  5
226
102
{ACAD_REACTORS
330
22E
102
}
330
1F
100
AcDbEntity
  8
一般
  6
Continuous
 62
     7
370
     5
100
AcDb2dPolyline
 66
     1
 10
0.0
 20
0.0
 30
0.0
 70
     5
 75
     5
  0
VERTEX
  5
227
330
226
100
AcDbEntity
  8
一般
  6
Continuous
 62
     7
370
     5
100
AcDbVertex
100
AcDb2dVertex
 10
-1282.458681996044
 20
5874.440844087076
 30
0.0
  0
VERTEX
  5
228
330
226
100
AcDbEntity
  8
一般
  6
Continuous
 62
     7
370
     5
100
AcDbVertex
100
AcDb2dVertex
 10
-1282.458681996044
 20
4874.440844087076
 30
0.0
  0
VERTEX
  5
229
330
226
100
AcDbEntity
  8
一般
  6
Continuous
 62
     7
370
     5
100
AcDbVertex
100
AcDb2dVertex
 10
8510.377008018459
 20
4774.361713876455
 30
0.0
  0
VERTEX
  5
22A
330
226
100
AcDbEntity
  8
一般
  6
Continuous
 62
     7
370
     5
100
AcDbVertex
100
AcDb2dVertex
 10
8508.90236298117
 20
4374.361713876456
 30
0.0
  0
VERTEX
  5
22B
330
226
100
AcDbEntity
  8
一般
  6
Continuous
 62
     7
370
     5
100
AcDbVertex
100
AcDb2dVertex
 10
-9784.175513041375
 20
4374.361713876456
 30
0.0
  0
VERTEX
  5
22C
330
226
100
AcDbEntity
  8
一般
  6
Continuous
 62
     7
370
     5
100
AcDbVertex
100
AcDb2dVertex
 10
-9784.175513041375
 20
5874.361713876458
 30
0.0
  0
SEQEND
  5
22D
330
226
100
AcDbEntity
  8
一般
  6
Continuous
 62
     7
370
     5
  0
HATCH
  5
22E
330
1F
100
AcDbEntity
  8
一般
  6
Continuous
 62
   254
370
     0
100
AcDbHatch
 10
0.0
 20
0.0
 30
0.0
210
0.0
220
0.0
230
1.0
  2
SOLID
 70
     1
 71
     1
 91
        1
 92
        1
 93
        6
 72
     1
 10
-1282.458681996044
 20
5874.440844087076
 11
-1282.458681996044
 21
4874.440844087076
 72
     1
 10
-1282.458681996044
 20
4874.440844087076
 11
8510.377008018459
 21
4774.361713876455
 72
     1
 10
8510.377008018459
 20
4774.361713876455
 11
8508.90236298117
 21
4374.361713876456
 72
     1
 10
8508.90236298117
 20
4374.361713876456
 11
-9784.175513041373
 21
4374.361713876456
 72
     1
 10
-9784.175513041375
 20
4374.361713876456
 11
-9784.175513041375
 21
5874.361713876458
 72
     1
 10
-9784.175513041375
 20
5874.361713876458
 11
-1282.458681996044
 21
5874.440844087076
 97
        1
330
226
 75
     0
 76
     1
 98
        1
 10
0.0
 20
0.0
  0
LINE
  5
22F
330
1F
100
AcDbEntity
  8
一般
  6
破線の種類-6
 62
     7
370
     5
100
AcDbLine
 10
9856.888876307492
 20
4774.361713876455
 30
0.0
 11
8510.377008018459
 21
4774.361713876455
 31
0.0
  0
POLYLINE
  5
230
102
{ACAD_REACTORS
330
238
102
}
330
1F
100
AcDbEntity
  8
一般
  6
Continuous
 62
     7
370
     5
100
AcDb2dPolyline
 66
     1
 10
0.0
 20
0.0
 30
0.0
 70
     5
 75
     5
  0
VERTEX
  5
231
330
230
100
AcDbEntity
  8
一般
  6
Continuous
 62
     7
370
     5
100
AcDbVertex
100
AcDb2dVertex
 10
-6541.996107350191
 20
-5901.171633410242
 30
0.0
  0
VERTEX
  5
232
330
230
100
AcDbEntity
  8
一般
  6
Continuous
 62
     7
370
     5
100
AcDbVertex
100
AcDb2dVertex
 10
-6541.996107350191
 20
-12086.17163341024
 30
0.0
  0
VERTEX
  5
233
330
230
100
AcDbEntity
  8
一般
  6
Continuous
 62
     7
370
     5
100
AcDbVertex
100
AcDb2dVertex
 10
-1416.996107350191
 20
-12086.17163341024
 30
0.0
  0
VERTEX
  5
234
330
230
100
AcDbEntity
  8
一般
  6
Continuous
 62
     7
370
     5
100
AcDbVertex
100
AcDb2dVertex
 10
-1416.996107350191
 20
-7826.171633410247
 30
0.0
  0
VERTEX
  5
235
330
230
100
AcDbEntity
  8
一般
  6
Continuous
 62
     7
370
     5
100
AcDbVertex
100
AcDb2dVertex
 10
3408.00389264981
 20
-7826.171633410247
 30
0.0
  0
VERTEX
  5
236
330
230
100
AcDbEntity
  8
一般
  6
Continuous
 62
     7
370
     5
100
AcDbVertex
100
AcDb2dVertex
 10
3408.00389264981
 20
-5901.171633410242
 30
0.0
  0
SEQEND
  5
237
330
230
100
AcDbEntity
  8
一般
  6
Continuous
 62
     7
370
     5
  0
HATCH
  5
238
330
1F
100
AcDbEntity
  8
一般
  6
Continuous
 62
   254
370
     0
100
AcDbHatch
 10
0.0
 20
0.0
 30
0.0
210
0.0
220
0.0
230
1.0
  2
SOLID
 70
     1
 71
     1
 91
        1
 92
        1
 93
        6
 72
     1
 10
-6541.996107350191
 20
-5901.171633410242
 11
-6541.996107350191
 21
-12086.17163341024
 72
     1
 10
-6541.996107350191
 20
-12086.17163341024
 11
-1416.996107350191
 21
-12086.17163341024
 72
     1
 10
-1416.996107350191
 20
-12086.17163341024
 11
-1416.996107350191
 21
-7826.171633410247
 72
     1
 10
-1416.996107350191
 20
-7826.171633410247
 11
3408.00389264981
 21
-7826.171633410247
 72
     1
 10
3408.00389264981
 20
-7826.171633410247
 11
3408.00389264981
 21
-5901.171633410242
 72
     1
 10
3408.00389264981
 20
-5901.171633410242
 11
-6541.99610735019
 21
-5901.171633410242
 97
        1
330
230
 75
     0
 76
     1
 98
        1
 10
0.0
 20
0.0
  0
POLYLINE
  5
239
102
{ACAD_REACTORS
330
23F
102
}
330
1F
100
AcDbEntity
  8
一般
  6
Continuous
 62
     8
370
     5
100
AcDb2dPolyline
 66
     1
 10
0.0
 20
0.0
 30
0.0
 70
     5
 75
     5
  0
VERTEX
  5
23A
330
239
100
AcDbEntity
  8
一般
  6
Continuous
 62
     8
370
     5
100
AcDbVertex
100
AcDb2dVertex
 10
-6784.175513041375
 20
11974.36171387646
 30
0.0
  0
VERTEX
  5
23B
330
239
100
AcDbEntity
  8
一般
  6
Continuous
 62
     8
370
     5
100
AcDbVertex
100
AcDb2dVertex
 10
6515.824486958625
 20
11974.36171387646
 30
0.0
  0
VERTEX
  5
23C
330
239
100
AcDbEntity
  8
一般
  6
Continuous
 62
     8
370
     5
100
AcDbVertex
100
AcDb2dVertex
 10
6515.824486958625
 20
11074.36171387646
 30
0.0
  0
VERTEX
  5
23D
330
239
100
AcDbEntity
  8
一般
  6
Continuous
 62
     8
370
     5
100
AcDbVertex
100
AcDb2dVertex
 10
-6784.175513041375
 20
11074.36171387646
 30
0.0
  0
SEQEND
  5
23E
330
239
100
AcDbEntity
  8
一般
  6
Continuous
 62
     8
370
     5
  0
HATCH
  5
23F
330
1F
100
AcDbEntity
  8
一般
  6
Continuous
 62
   254
370
     0
100
AcDbHatch
 10
0.0
 20
0.0
 30
0.0
210
0.0
220
0.0
230
1.0
  2
SOLID
 70
     1
 71
     1
 91
        1
 92
        1
 93
        4
 72
     1
 10
-6784.175513041375
 20
11974.36171387646
 11
6515.824486958625
 21
11974.36171387646
 72
     1
 10
6515.824486958625
 20
11974.36171387646
 11
6515.824486958625
 21
11074.36171387646
 72
     1
 10
6515.824486958625
 20
11074.36171387646
 11
-6784.175513041375
 21
11074.36171387646
 72
     1
 10
-6784.175513041375
 20
11074.36171387646
 11
-6784.175513041375
 21
11974.36171387646
 97
        1
330
239
 75
     0
 76
     1
 98
        1
 10
0.0
 20
0.0
  0
POLYLINE
  5
240
330
1F
100
AcDbEntity
  8
一般
  6
Continuous
 62
   253
370
     5
100
AcDb2dPolyline
 66
     1
 10
0.0
 20
0.0
 30
0.0
 70
     5
 75
     5
  0
VERTEX
  5
241
330
240
100
AcDbEntity
  8
一般
  6
Continuous
 62
   253
370
     5
100
AcDbVertex
100
AcDb2dVertex
 10
6165.824486958625
 20
11974.36171387646
 30
0.0
  0
VERTEX
  5
242
330
240
100
AcDbEntity
  8
一般
  6
Continuous
 62
   253
370
     5
100
AcDbVertex
100
AcDb2dVertex
 10
6865.824486958625
 20
11974.36171387646
 30
0.0
  0
VERTEX
  5
243
330
240
100
AcDbEntity
  8
一般
  6
Continuous
 62
   253
370
     5
100
AcDbVertex
100
AcDb2dVertex
 10
6865.824486958625
 20
4774.361713876455
 30
0.0
  0
VERTEX
  5
244
330
240
100
AcDbEntity
  8
一般
  6
Continuous
 62
   253
370
     5
100
AcDbVertex
100
AcDb2dVertex
 10
6165.824486958625
 20
4774.361713876455
 30
0.0
  0
SEQEND
  5
245
330
240
100
AcDbEntity
  8
一般
  6
Continuous
 62
   253
370
     5
  0
POLYLINE
  5
246
330
1F
100
AcDbEntity
  8
一般
  6
Continuous
 62
     7
370
     5
100
AcDb2dPolyline
 66
     1
 10
0.0
 20
0.0
 30
0.0
 70
     5
 75
     5
  0
VERTEX
  5
247
330
246
100
AcDbEntity
  8
一般
  6
Continuous
 62
     7
370
     5
100
AcDbVertex
100
AcDb2dVertex
 10
365.8244869586249
 20
11974.36171387646
 30
0.0
  0
VERTEX
  5
248
330
246
100
AcDbEntity
  8
一般
  6
Continuous
 62
     7
370
     5
100
AcDbVertex
100
AcDb2dVertex
 10
1065.824486958625
 20
11974.36171387646
 30
0.0
  0
VERTEX
  5
249
330
246
100
AcDbEntity
  8
一般
  6
Continuous
 62
     7
370
     5
100
AcDbVertex
100
AcDb2dVertex
 10
1065.824486958625
 20
5874.361713876458
 30
0.0
  0
VERTEX
  5
24A
330
246
100
AcDbEntity
  8
一般
  6
Continuous
 62
     7
370
     5
100
AcDbVertex
100
AcDb2dVertex
 10
365.8244869586249
 20
5874.361713876458
 30
0.0
  0
SEQEND
  5
24B
330
246
100
AcDbEntity
  8
一般
  6
Continuous
 62
     7
370
     5
  0
POLYLINE
  5
24C
330
1F
100
AcDbEntity
  8
一般
  6
Continuous
 62
     7
370
     5
100
AcDb2dPolyline
 66
     1
 10
0.0
 20
0.0
 30
0.0
 70
     5
 75
     5
  0
VERTEX
  5
24D
330
24C
100
AcDbEntity
  8
一般
  6
Continuous
 62
     7
370
     5
100
AcDbVertex
100
AcDb2dVertex
 10
-6784.175513041375
 20
11974.36171387646
 30
0.0
  0
VERTEX
  5
24E
330
24C
100
AcDbEntity
  8
一般
  6
Continuous
 62
     7
370
     5
100
AcDbVertex
100
AcDb2dVertex
 10
-2284.175513041376
 20
11974.36171387646
 30
0.0
  0
VERTEX
  5
24F
330
24C
100
AcDbEntity
  8
一般
  6
Continuous
 62
     7
370
     5
100
AcDbVertex
100
AcDb2dVertex
 10
-2284.175513041376
 20
10274.36171387645
 30
0.0
  0
VERTEX
  5
250
330
24C
100
AcDbEntity
  8
一般
  6
Continuous
 62
     7
370
     5
100
AcDbVertex
100
AcDb2dVertex
 10
-6784.175513041375
 20
10274.36171387645
 30
0.0
  0
SEQEND
  5
251
330
24C
100
AcDbEntity
  8
一般
  6
Continuous
 62
     7
370
     5
  0
POLYLINE
  5
252
102
{ACAD_REACTORS
330
262
102
}
330
1F
100
AcDbEntity
  8
一般
  6
Continuous
 62
     7
370
     5
100
AcDb2dPolyline
 66
     1
 10
0.0
 20
0.0
 30
0.0
 70
     5
 75
     5
  0
VERTEX
  5
253
330
252
100
AcDbEntity
  8
一般
  6
Continuous
 62
     7
370
     5
100
AcDbVertex
100
AcDb2dVertex
 10
515.8244869586249
 20
11074.36171387646
 30
0.0
  0
VERTEX
  5
254
330
252
100
AcDbEntity
  8
一般
  6
Continuous
 62
     7
370
     5
100
AcDbVertex
100
AcDb2dVertex
 10
515.8244869586249
 20
11824.36171387646
 30
0.0
  0
VERTEX
  5
255
330
252
100
AcDbEntity
  8
一般
  6
Continuous
 62
     7
370
     5
100
AcDbVertex
100
AcDb2dVertex
 10
-6434.175513041375
 20
11824.36171387646
 30
0.0
  0
VERTEX
  5
256
330
252
100
AcDbEntity
  8
一般
  6
Continuous
 62
     7
370
     5
100
AcDbVertex
100
AcDb2dVertex
 10
-6434.175513041375
 20
9274.361713876448
 30
0.0
  0
VERTEX
  5
257
330
252
100
AcDbEntity
  8
一般
  6
Continuous
 62
     7
370
     5
100
AcDbVertex
100
AcDb2dVertex
 10
-7134.175513041375
 20
9274.361713876448
 30
0.0
  0
VERTEX
  5
258
330
252
100
AcDbEntity
  8
一般
  6
Continuous
 62
     7
370
     5
100
AcDbVertex
100
AcDb2dVertex
 10
-7134.175513041375
 20
11974.36171387646
 30
0.0
  0
VERTEX
  5
259
330
252
100
AcDbEntity
  8
一般
  6
Continuous
 62
     7
370
     5
100
AcDbVertex
100
AcDb2dVertex
 10
6865.824486958625
 20
11974.36171387646
 30
0.0
  0
VERTEX
  5
25A
330
252
100
AcDbEntity
  8
一般
  6
Continuous
 62
     7
370
     5
100
AcDbVertex
100
AcDb2dVertex
 10
6865.824486958625
 20
10189.36171387645
 30
0.0
  0
VERTEX
  5
25B
330
252
100
AcDbEntity
  8
一般
  6
Continuous
 62
     7
370
     5
100
AcDbVertex
100
AcDb2dVertex
 10
6665.824486958625
 20
10189.36171387645
 30
0.0
  0
VERTEX
  5
25C
330
252
100
AcDbEntity
  8
一般
  6
Continuous
 62
     7
370
     5
100
AcDbVertex
100
AcDb2dVertex
 10
6665.824486958625
 20
11074.36171387646
 30
0.0
  0
VERTEX
  5
25D
330
252
100
AcDbEntity
  8
一般
  6
Continuous
 62
     7
370
     5
100
AcDbVertex
100
AcDb2dVertex
 10
6515.824486958625
 20
11074.36171387646
 30
0.0
  0
VERTEX
  5
25E
330
252
100
AcDbEntity
  8
一般
  6
Continuous
 62
     7
370
     5
100
AcDbVertex
100
AcDb2dVertex
 10
6515.824486958625
 20
11824.36171387646
 30
0.0
  0
VERTEX
  5
25F
330
252
100
AcDbEntity
  8
一般
  6
Continuous
 62
     7
370
     5
100
AcDbVertex
100
AcDb2dVertex
 10
915.8244869586249
 20
11824.36171387646
 30
0.0
  0
VERTEX
  5
260
330
252
100
AcDbEntity
  8
一般
  6
Continuous
 62
     7
370
     5
100
AcDbVertex
100
AcDb2dVertex
 10
915.8244869586249
 20
11074.36171387646
 30
0.0
  0
SEQEND
  5
261
330
252
100
AcDbEntity
  8
一般
  6
Continuous
 62
     7
370
     5
  0
HATCH
  5
262
330
1F
100
AcDbEntity
  8
一般
  6
Continuous
 62
    19
370
     0
100
AcDbHatch
 10
0.0
 20
0.0
 30
0.0
210
0.0
220
0.0
230
1.0
  2
SOLID
 70
     1
 71
     1
 91
        1
 92
        1
 93
       14
 72
     1
 10
515.8244869586249
 20
11074.36171387646
 11
515.8244869586249
 21
11824.36171387646
 72
     1
 10
515.8244869586249
 20
11824.36171387646
 11
-6434.175513041375
 21
11824.36171387646
 72
     1
 10
-6434.175513041375
 20
11824.36171387646
 11
-6434.175513041375
 21
9274.361713876448
 72
     1
 10
-6434.175513041375
 20
9274.361713876448
 11
-7134.175513041375
 21
9274.361713876448
 72
     1
 10
-7134.175513041375
 20
9274.361713876448
 11
-7134.175513041375
 21
11974.36171387646
 72
     1
 10
-7134.175513041375
 20
11974.36171387646
 11
6865.824486958625
 21
11974.36171387646
 72
     1
 10
6865.824486958625
 20
11974.36171387646
 11
6865.824486958625
 21
10189.36171387645
 72
     1
 10
6865.824486958625
 20
10189.36171387645
 11
6665.824486958625
 21
10189.36171387645
 72
     1
 10
6665.824486958625
 20
10189.36171387645
 11
6665.824486958625
 21
11074.36171387646
 72
     1
 10
6665.824486958625
 20
11074.36171387646
 11
6515.824486958625
 21
11074.36171387646
 72
     1
 10
6515.824486958625
 20
11074.36171387646
 11
6515.824486958625
 21
11824.36171387646
 72
     1
 10
6515.824486958625
 20
11824.36171387646
 11
915.8244869586251
 21
11824.36171387646
 72
     1
 10
915.8244869586249
 20
11824.36171387646
 11
915.8244869586249
 21
11074.36171387646
 72
     1
 10
915.8244869586249
 20
11074.36171387646
 11
515.8244869586249
 21
11074.36171387646
 97
        1
330
252
 75
     0
 76
     1
 98
        1
 10
0.0
 20
0.0
  0
WIPEOUT
  5
263
330
1F
100
AcDbEntity
  8
一般
  6
Continuous
 62
     7
370
     5
 92
      152
310
98000000040000000C0000000E000000120000000C00000016000000000000C20C00000014000000010000006C0000000700000004000000BB346CEE2CDEBBC0EDEAA34C2E1DC2400000000000000000BA346CEE2C22B9C0EDEAA34C2E1DC2400000000000000000BA346CEE2C22B9C0E6D547995CF2B64000000000000000
310
00BB346CEE2CDEBBC0E6D547995CF2B6400000000000000000
100
AcDbWipeout
 90
        0
 10
-7134.175513041375
 20
5874.361713876458
 30
0.0
 11
3399.999999999989
 21
0.0
 31
0.0
 12
0.0
 22
3399.999999999989
 32
0.0
 13
1.0
 23
1.0
340
0
 70
     4
280
     1
281
    50
282
    50
283
     0
360
0
 71
     2
 91
        5
 14
-0.5000000000000002
 24
-0.5
 14
-0.2941176470588229
 24
-0.5
 14
-0.2941176470588229
 24
0.5
 14
-0.5000000000000002
 24
0.5
 14
-0.5000000000000002
 24
-0.5
  0
POLYLINE
  5
264
330
1F
100
AcDbEntity
  8
一般
  6
Continuous
 62
     7
370
     5
100
AcDb2dPolyline
 66
     1
 10
0.0
 20
0.0
 30
0.0
 70
     5
 75
     5
  0
VERTEX
  5
265
330
264
100
AcDbEntity
  8
一般
  6
Continuous
 62
     7
370
     5
100
AcDbVertex
100
AcDb2dVertex
 10
-7134.175513041375
 20
9274.361713876448
 30
0.0
  0
VERTEX
  5
266
330
264
100
AcDbEntity
  8
一般
  6
Continuous
 62
     7
370
     5
100
AcDbVertex
100
AcDb2dVertex
 10
-6434.175513041375
 20
9274.361713876448
 30
0.0
  0
VERTEX
  5
267
330
264
100
AcDbEntity
  8
一般
  6
Continuous
 62
     7
370
     5
100
AcDbVertex
100
AcDb2dVertex
 10
-6434.175513041375
 20
5874.361713876458
 30
0.0
  0
VERTEX
  5
268
330
264
100
AcDbEntity
  8
一般
  6
Continuous
 62
     7
370
     5
100
AcDbVertex
100
AcDb2dVertex
 10
-7134.175513041375
 20
5874.361713876458
 30
0.0
  0
SEQEND
  5
269
330
264
100
AcDbEntity
  8
一般
  6
Continuous
 62
     7
370
     5
  0
WIPEOUT
  5
26A
330
1F
100
AcDbEntity
  8
一般
  6
Continuous
 62
     7
370
     5
 92
      152
310
98000000040000000C0000000E000000120000000C00000016000000000000C20C00000014000000010000006C0000000700000004000000BA346CEE2C22B9C0EDEAA34C2E1DC2400000000000000000BA346CEE2C04B9C0EDEAA34C2E1DC2400000000000000000BA346CEE2C04B9C0E6D547995CF2B64000000000000000
310
00BA346CEE2C22B9C0E6D547995CF2B6400000000000000000
100
AcDbWipeout
 90
        0
 10
-6434.175513041375
 20
5874.361713876458
 30
0.0
 11
3399.999999999989
 21
0.0
 31
0.0
 12
0.0
 22
3399.999999999989
 32
0.0
 13
1.0
 23
1.0
340
0
 70
     4
280
     1
281
    50
282
    50
283
     0
360
0
 71
     2
 91
        5
 14
-0.5
 24
-0.5
 14
-0.4911764705882351
 24
-0.5
 14
-0.4911764705882351
 24
0.5
 14
-0.5
 24
0.5
 14
-0.5
 24
-0.5
  0
POLYLINE
  5
26B
330
1F
100
AcDbEntity
  8
一般
  6
Continuous
 62
     7
370
     5
100
AcDb2dPolyline
 66
     1
 10
0.0
 20
0.0
 30
0.0
 70
     5
 75
     5
  0
VERTEX
  5
26C
330
26B
100
AcDbEntity
  8
一般
  6
Continuous
 62
     7
370
     5
100
AcDbVertex
100
AcDb2dVertex
 10
-6434.175513041375
 20
9274.361713876448
 30
0.0
  0
VERTEX
  5
26D
330
26B
100
AcDbEntity
  8
一般
  6
Continuous
 62
     7
370
     5
100
AcDbVertex
100
AcDb2dVertex
 10
-6404.175513041375
 20
9274.361713876448
 30
0.0
  0
VERTEX
  5
26E
330
26B
100
AcDbEntity
  8
一般
  6
Continuous
 62
     7
370
     5
100
AcDbVertex
100
AcDb2dVertex
 10
-6404.175513041375
 20
5874.361713876458
 30
0.0
  0
VERTEX
  5
26F
330
26B
100
AcDbEntity
  8
一般
  6
Continuous
 62
     7
370
     5
100
AcDbVertex
100
AcDb2dVertex
 10
-6434.175513041375
 20
5874.361713876458
 30
0.0
  0
SEQEND
  5
270
330
26B
100
AcDbEntity
  8
一般
  6
Continuous
 62
     7
370
     5
  0
WIPEOUT
  5
271
330
1F
100
AcDbEntity
  8
一般
  6
Continuous
 62
     7
370
     5
 92
      152
310
98000000040000000C0000000E000000120000000C00000016000000000000C20C00000014000000010000006C0000000700000004000000BC346CEE2CFCBBC0EDEAA34C2E1DC2400000000000000000BC346CEE2CDEBBC0EDEAA34C2E1DC2400000000000000000BC346CEE2CDEBBC0E6D547995CF2B64000000000000000
310
00BC346CEE2CFCBBC0E6D547995CF2B6400000000000000000
100
AcDbWipeout
 90
        0
 10
-7164.175513041375
 20
5874.361713876458
 30
0.0
 11
3399.999999999989
 21
0.0
 31
0.0
 12
0.0
 22
3399.999999999989
 32
0.0
 13
1.0
 23
1.0
340
0
 70
     4
280
     1
281
    50
282
    50
283
     0
360
0
 71
     2
 91
        5
 14
-0.5000000000000004
 24
-0.5
 14
-0.4911764705882358
 24
-0.5
 14
-0.4911764705882358
 24
0.5
 14
-0.5000000000000004
 24
0.5
 14
-0.5000000000000004
 24
-0.5
  0
POLYLINE
  5
272
330
1F
100
AcDbEntity
  8
一般
  6
Continuous
 62
     7
370
     5
100
AcDb2dPolyline
 66
     1
 10
0.0
 20
0.0
 30
0.0
 70
     5
 75
     5
  0
VERTEX
  5
273
330
272
100
AcDbEntity
  8
一般
  6
Continuous
 62
     7
370
     5
100
AcDbVertex
100
AcDb2dVertex
 10
-7164.175513041375
 20
9274.361713876448
 30
0.0
  0
VERTEX
  5
274
330
272
100
AcDbEntity
  8
一般
  6
Continuous
 62
     7
370
     5
100
AcDbVertex
100
AcDb2dVertex
 10
-7134.175513041375
 20
9274.361713876448
 30
0.0
  0
VERTEX
  5
275
330
272
100
AcDbEntity
  8
一般
  6
Continuous
 62
     7
370
     5
100
AcDbVertex
100
AcDb2dVertex
 10
-7134.175513041375
 20
5874.361713876458
 30
0.0
  0
VERTEX
  5
276
330
272
100
AcDbEntity
  8
一般
  6
Continuous
 62
     7
370
     5
100
AcDbVertex
100
AcDb2dVertex
 10
-7164.175513041375
 20
5874.361713876458
 30
0.0
  0
SEQEND
  5
277
330
272
100
AcDbEntity
  8
一般
  6
Continuous
 62
     7
370
     5
  0
WIPEOUT
  5
278
330
1F
100
AcDbEntity
  8
一般
  6
Continuous
 62
     7
370
     5
 92
      152
310
98000000040000000C0000000E000000120000000C00000016000000000000C20C00000014000000010000006C0000000700000004000000BB346CEE2C86B9C0EDEAA34C2E1DC2400000000000000000BB346CEE2C22B9C0EDEAA34C2E1DC2400000000000000000BB346CEE2C22B9C0E6D547995CF2B64000000000000000
310
00BB346CEE2C86B9C0E6D547995CF2B6400000000000000000
100
AcDbWipeout
 90
        0
 10
-6534.175513041375
 20
5874.361713876458
 30
0.0
 11
3399.999999999989
 21
0.0
 31
0.0
 12
0.0
 22
3399.999999999989
 32
0.0
 13
1.0
 23
1.0
340
0
 70
     4
280
     1
281
    50
282
    50
283
     0
360
0
 71
     2
 91
        5
 14
-0.5000000000000002
 24
-0.5
 14
-0.4705882352941178
 24
-0.5
 14
-0.4705882352941178
 24
0.5
 14
-0.5000000000000002
 24
0.5
 14
-0.5000000000000002
 24
-0.5
  0
POLYLINE
  5
279
330
1F
100
AcDbEntity
  8
一般
  6
Continuous
 62
     7
370
     5
100
AcDb2dPolyline
 66
     1
 10
0.0
 20
0.0
 30
0.0
 70
     5
 75
     5
  0
VERTEX
  5
27A
330
279
100
AcDbEntity
  8
一般
  6
Continuous
 62
     7
370
     5
100
AcDbVertex
100
AcDb2dVertex
 10
-6534.175513041375
 20
9274.361713876448
 30
0.0
  0
VERTEX
  5
27B
330
279
100
AcDbEntity
  8
一般
  6
Continuous
 62
     7
370
     5
100
AcDbVertex
100
AcDb2dVertex
 10
-6434.175513041375
 20
9274.361713876448
 30
0.0
  0
VERTEX
  5
27C
330
279
100
AcDbEntity
  8
一般
  6
Continuous
 62
     7
370
     5
100
AcDbVertex
100
AcDb2dVertex
 10
-6434.175513041375
 20
5874.361713876458
 30
0.0
  0
VERTEX
  5
27D
330
279
100
AcDbEntity
  8
一般
  6
Continuous
 62
     7
370
     5
100
AcDbVertex
100
AcDb2dVertex
 10
-6534.175513041375
 20
5874.361713876458
 30
0.0
  0
SEQEND
  5
27E
330
279
100
AcDbEntity
  8
一般
  6
Continuous
 62
     7
370
     5
  0
WIPEOUT
  5
27F
330
1F
100
AcDbEntity
  8
一般
  6
Continuous
 62
     7
370
     5
 92
      152
310
98000000040000000C0000000E000000120000000C00000016000000000000C20C00000014000000010000006C0000000700000004000000BB346CEE2CDEBBC0EDEAA34C2E1DC2400000000000000000BA346CEE2C7ABBC0EDEAA34C2E1DC2400000000000000000BA346CEE2C7ABBC0E6D547995CF2B64000000000000000
310
00BB346CEE2CDEBBC0E6D547995CF2B6400000000000000000
100
AcDbWipeout
 90
        0
 10
-7134.175513041375
 20
5874.361713876458
 30
0.0
 11
3399.999999999989
 21
0.0
 31
0.0
 12
0.0
 22
3399.999999999989
 32
0.0
 13
1.0
 23
1.0
340
0
 70
     4
280
     1
281
    50
282
    50
283
     0
360
0
 71
     2
 91
        5
 14
-0.5000000000000002
 24
-0.5
 14
-0.4705882352941175
 24
-0.5
 14
-0.4705882352941175
 24
0.5
 14
-0.5000000000000002
 24
0.5
 14
-0.5000000000000002
 24
-0.5
  0
POLYLINE
  5
280
330
1F
100
AcDbEntity
  8
一般
  6
Continuous
 62
     7
370
     5
100
AcDb2dPolyline
 66
     1
 10
0.0
 20
0.0
 30
0.0
 70
     5
 75
     5
  0
VERTEX
  5
281
330
280
100
AcDbEntity
  8
一般
  6
Continuous
 62
     7
370
     5
100
AcDbVertex
100
AcDb2dVertex
 10
-7134.175513041375
 20
9274.361713876448
 30
0.0
  0
VERTEX
  5
282
330
280
100
AcDbEntity
  8
一般
  6
Continuous
 62
     7
370
     5
100
AcDbVertex
100
AcDb2dVertex
 10
-7034.175513041375
 20
9274.361713876448
 30
0.0
  0
VERTEX
  5
283
330
280
100
AcDbEntity
  8
一般
  6
Continuous
 62
     7
370
     5
100
AcDbVertex
100
AcDb2dVertex
 10
-7034.175513041375
 20
5874.361713876458
 30
0.0
  0
VERTEX
  5
284
330
280
100
AcDbEntity
  8
一般
  6
Continuous
 62
     7
370
     5
100
AcDbVertex
100
AcDb2dVertex
 10
-7134.175513041375
 20
5874.361713876458
 30
0.0
  0
SEQEND
  5
285
330
280
100
AcDbEntity
  8
一般
  6
Continuous
 62
     7
370
     5
  0
WIPEOUT
  5
286
330
1F
100
AcDbEntity
  8
一般
  6
Continuous
 62
     7
370
     5
 92
      152
310
98000000040000000C0000000E000000120000000C00000016000000000000C20C00000014000000010000006C0000000700000004000000B9346CEE2C61BBC0F4EAA34C2E6FC5400000000000000000BA346CEE2C9FB9C0F4EAA34C2E6FC5400000000000000000BA346CEE2C9FB9C0EDEAA34C2E1DC24000000000000000
310
00B9346CEE2C61BBC0EDEAA34C2E1DC2400000000000000000
100
AcDbWipeout
 90
        0
 10
-7009.175513041375
 20
9274.361713876448
 30
0.0
 11
1700.000000000013
 21
0.0
 31
0.0
 12
0.0
 22
1700.000000000013
 32
0.0
 13
1.0
 23
1.0
340
0
 70
     4
280
     1
281
    50
282
    50
283
     0
360
0
 71
     2
 91
        5
 14
-0.4999999999999996
 24
-0.5000000000000009
 14
-0.2352941176470607
 24
-0.5000000000000009
 14
-0.2352941176470607
 24
0.4999999999999991
 14
-0.4999999999999996
 24
0.4999999999999991
 14
-0.4999999999999996
 24
-0.5000000000000009
  0
POLYLINE
  5
287
330
1F
100
AcDbEntity
  8
一般
  6
Continuous
 62
     7
370
     5
100
AcDb2dPolyline
 66
     1
 10
0.0
 20
0.0
 30
0.0
 70
     5
 75
     5
  0
VERTEX
  5
288
330
287
100
AcDbEntity
  8
一般
  6
Continuous
 62
     7
370
     5
100
AcDbVertex
100
AcDb2dVertex
 10
-7009.175513041375
 20
10974.36171387646
 30
0.0
  0
VERTEX
  5
289
330
287
100
AcDbEntity
  8
一般
  6
Continuous
 62
     7
370
     5
100
AcDbVertex
100
AcDb2dVertex
 10
-6559.175513041375
 20
10974.36171387646
 30
0.0
  0
VERTEX
  5
28A
330
287
100
AcDbEntity
  8
一般
  6
Continuous
 62
     7
370
     5
100
AcDbVertex
100
AcDb2dVertex
 10
-6559.175513041375
 20
9274.361713876448
 30
0.0
  0
VERTEX
  5
28B
330
287
100
AcDbEntity
  8
一般
  6
Continuous
 62
     7
370
     5
100
AcDbVertex
100
AcDb2dVertex
 10
-7009.175513041375
 20
9274.361713876448
 30
0.0
  0
SEQEND
  5
28C
330
287
100
AcDbEntity
  8
一般
  6
Continuous
 62
     7
370
     5
  0
INSERT
  5
28D
330
1F
100
AcDbEntity
  8
一般
 62
     7
100
AcDbBlockReference
  2
グループ
 10
0.0
 20
0.0
 30
0.0
  0
WIPEOUT
  5
28E
330
1F
100
AcDbEntity
  8
一般
  6
Continuous
 62
     7
370
     5
 92
      152
310
98000000040000000C0000000E000000120000000C00000016000000000000C20C00000014000000010000006C000000070000000400000044CB9311D341B940EDEAA34C2EA8C340000000000000000044CB9311D3A5B940EDEAA34C2EA8C340000000000000000044CB9311D3A5B940E2D547995CA6B24000000000000000
310
0044CB9311D341B940E2D547995CA6B2400000000000000000
100
AcDbWipeout
 90
        0
 10
6465.824486958625
 20
4774.361713876455
 30
0.0
 11
5289.999999999995
 21
0.0
 31
0.0
 12
0.0
 22
5289.999999999995
 32
0.0
 13
1.0
 23
1.0
340
0
 70
     4
280
     1
281
    50
282
    50
283
     0
360
0
 71
     2
 91
        5
 14
-0.5000000000000004
 24
-0.4999999999999998
 14
-0.4810964083175808
 24
-0.4999999999999998
 14
-0.4810964083175808
 24
0.5
 14
-0.5000000000000004
 24
0.5
 14
-0.5000000000000004
 24
-0.4999999999999998
  0
POLYLINE
  5
28F
330
1F
100
AcDbEntity
  8
一般
  6
Continuous
 62
     7
370
     5
100
AcDb2dPolyline
 66
     1
 10
0.0
 20
0.0
 30
0.0
 70
     5
 75
     5
  0
VERTEX
  5
290
330
28F
100
AcDbEntity
  8
一般
  6
Continuous
 62
     7
370
     5
100
AcDbVertex
100
AcDb2dVertex
 10
6465.824486958625
 20
10064.36171387645
 30
0.0
  0
VERTEX
  5
291
330
28F
100
AcDbEntity
  8
一般
  6
Continuous
 62
     7
370
     5
100
AcDbVertex
100
AcDb2dVertex
 10
6565.824486958625
 20
10064.36171387645
 30
0.0
  0
VERTEX
  5
292
330
28F
100
AcDbEntity
  8
一般
  6
Continuous
 62
     7
370
     5
100
AcDbVertex
100
AcDb2dVertex
 10
6565.824486958625
 20
4774.361713876455
 30
0.0
  0
VERTEX
  5
293
330
28F
100
AcDbEntity
  8
一般
  6
Continuous
 62
     7
370
     5
100
AcDbVertex
100
AcDb2dVertex
 10
6465.824486958625
 20
4774.361713876455
 30
0.0
  0
SEQEND
  5
294
330
28F
100
AcDbEntity
  8
一般
  6
Continuous
 62
     7
370
     5
  0
LINE
  5
295
330
1F
100
AcDbEntity
  8
一般
  6
Continuous
 62
     7
370
     5
100
AcDbLine
 10
-1284.175513041375
 20
5874.440844087076
 30
0.0
 11
3515.824486958624
 21
5874.361713876458
 31
0.0
  0
LINE
  5
296
330
1F
100
AcDbEntity
  8
一般
  6
Continuous
 62
     7
370
     5
100
AcDbLine
 10
3515.824486958624
 20
5874.361713876458
 30
0.0
 11
3497.824486958624
 21
5691.361713876458
 31
0.0
  0
LINE
  5
297
330
1F
100
AcDbEntity
  8
一般
  6
Continuous
 62
     7
370
     5
100
AcDbLine
 10
3815.824486958624
 20
5691.361713876458
 30
0.0
 11
3797.824486958624
 21
5508.361713876458
 31
0.0
  0
LINE
  5
298
330
1F
100
AcDbEntity
  8
一般
  6
Continuous
 62
     7
370
     5
100
AcDbLine
 10
3497.824486958624
 20
5691.361713876458
 30
0.0
 11
3815.824486958624
 21
5691.361713876458
 31
0.0
  0
LINE
  5
299
330
1F
100
AcDbEntity
  8
一般
  6
Continuous
 62
     7
370
     5
100
AcDbLine
 10
3797.824486958624
 20
5508.361713876458
 30
0.0
 11
4115.824486958625
 21
5508.361713876458
 31
0.0
  0
LINE
  5
29A
330
1F
100
AcDbEntity
  8
一般
  6
Continuous
 62
     7
370
     5
100
AcDbLine
 10
4115.824486958625
 20
5508.361713876458
 30
0.0
 11
4097.824486958625
 21
5325.361713876457
 31
0.0
  0
LINE
  5
29B
330
1F
100
AcDbEntity
  8
一般
  6
Continuous
 62
     7
370
     5
100
AcDbLine
 10
4097.824486958625
 20
5325.361713876457
 30
0.0
 11
4415.824486958625
 21
5325.361713876457
 31
0.0
  0
LINE
  5
29C
330
1F
100
AcDbEntity
  8
一般
  6
Continuous
 62
     7
370
     5
100
AcDbLine
 10
4415.824486958625
 20
5325.361713876457
 30
0.0
 11
4397.824486958625
 21
5142.361713876456
 31
0.0
  0
LINE
  5
29D
330
1F
100
AcDbEntity
  8
一般
  6
Continuous
 62
     7
370
     5
100
AcDbLine
 10
4397.824486958625
 20
5142.361713876456
 30
0.0
 11
4715.824486958625
 21
5142.361713876456
 31
0.0
  0
LINE
  5
29E
330
1F
100
AcDbEntity
  8
一般
  6
Continuous
 62
     7
370
     5
100
AcDbLine
 10
4715.824486958625
 20
5141.071939370167
 30
0.0
 11
4697.824486958625
 21
4958.071939370166
 31
0.0
  0
LINE
  5
29F
330
1F
100
AcDbEntity
  8
一般
  6
Continuous
 62
     7
370
     5
100
AcDbLine
 10
4697.824486958625
 20
4958.071939370166
 30
0.0
 11
5015.824486958625
 21
4958.071939370166
 31
0.0
  0
LINE
  5
2A0
330
1F
100
AcDbEntity
  8
一般
  6
Continuous
 62
     7
370
     5
100
AcDbLine
 10
5015.824486958625
 20
4958.071939370166
 30
0.0
 11
4998.902362981169
 21
4786.030345599359
 31
0.0
  0
POLYLINE
  5
2A1
102
{ACAD_REACTORS
330
2A7
102
}
330
1F
100
AcDbEntity
  8
一般
  6
Continuous
 62
     7
370
     5
100
AcDb2dPolyline
 66
     1
 10
0.0
 20
0.0
 30
0.0
 70
     5
 75
     5
  0
VERTEX
  5
2A2
330
2A1
100
AcDbEntity
  8
一般
  6
Continuous
 62
     7
370
     5
100
AcDbVertex
100
AcDb2dVertex
 10
-1307.458681996044
 20
5874.440844087076
 30
0.0
  0
VERTEX
  5
2A3
330
2A1
100
AcDbEntity
  8
一般
  6
Continuous
 62
     7
370
     5
100
AcDbVertex
100
AcDb2dVertex
 10
-1257.458681996044
 20
5874.440844087076
 30
0.0
  0
VERTEX
  5
2A4
330
2A1
100
AcDbEntity
  8
一般
  6
Continuous
 62
     7
370
     5
100
AcDbVertex
100
AcDb2dVertex
 10
-1257.458681996044
 20
5724.440844087075
 30
0.0
  0
VERTEX
  5
2A5
330
2A1
100
AcDbEntity
  8
一般
  6
Continuous
 62
     7
370
     5
100
AcDbVertex
100
AcDb2dVertex
 10
-1307.458681996044
 20
5724.440844087075
 30
0.0
  0
SEQEND
  5
2A6
330
2A1
100
AcDbEntity
  8
一般
  6
Continuous
 62
     7
370
     5
  0
HATCH
  5
2A7
330
1F
100
AcDbEntity
  8
一般
  6
Continuous
 62
   251
370
     0
100
AcDbHatch
 10
0.0
 20
0.0
 30
0.0
210
0.0
220
0.0
230
1.0
  2
SOLID
 70
     1
 71
     1
 91
        1
 92
        1
 93
        4
 72
     1
 10
-1307.458681996044
 20
5874.440844087076
 11
-1257.458681996044
 21
5874.440844087076
 72
     1
 10
-1257.458681996044
 20
5874.440844087076
 11
-1257.458681996044
 21
5724.440844087075
 72
     1
 10
-1257.458681996044
 20
5724.440844087075
 11
-1307.458681996044
 21
5724.440844087075
 72
     1
 10
-1307.458681996044
 20
5724.440844087075
 11
-1307.458681996044
 21
5874.440844087076
 97
        1
330
2A1
 75
     0
 76
     1
 98
        1
 10
0.0
 20
0.0
  0
DIMENSION
  5
2A8
330
1F
100
AcDbEntity
  8
寸法
  6
Continuous
 62
   250
370
     5
100
AcDbDimension
  2
*D2
 10
-4634.175513041375
 20
5874.361713876458
 30
0.0
 11
-4634.175513041375
 21
8074.361713876455
 31
0.0
 70
    32
 71
     5
 42
4399.999999999993
  3
SIA
100
AcDbAlignedDimension
 13
-4834.175513041375
 23
10274.36171387645
 33
0.0
 14
-4834.175513041375
 24
5874.361713876458
 34
0.0
 50
-90.0
100
AcDbRotatedDimension
1001
ACAD
1000
DSTYLE
1002
{
1070
   147
1040
39.6875
1070
    77
1070
     0
1070
   340
1005
69
1002
}
  0
DIMENSION
  5
2A9
330
1F
100
AcDbEntity
  8
寸法
  6
Continuous
 62
   250
370
     5
100
AcDbDimension
  2
*D3
 10
-6213.703038370766
 20
5874.361713876458
 30
0.0
 11
-6213.703038370766
 21
7574.361713876453
 31
0.0
 70
    32
 71
     5
 42
3399.999999999989
  3
SIA
100
AcDbAlignedDimension
 13
-6352.828860988446
 23
9274.361713876448
 33
0.0
 14
-6352.828860988446
 24
5874.361713876458
 34
0.0
 50
-90.0
100
AcDbRotatedDimension
1001
ACAD
1000
DSTYLE
1002
{
1070
   147
1040
39.6875
1070
    77
1070
     0
1070
   340
1005
69
1002
}
  0
DIMENSION
  5
2AA
330
1F
100
AcDbEntity
  8
寸法
  6
Continuous
 62
   250
370
     5
100
AcDbDimension
  2
*D4
 10
7748.597946310992
 20
4774.361713876455
 30
0.0
 11
7748.597946310992
 21
7730.0
 31
0.0
 70
   160
 71
     5
 42
5309.999999999995
  3
SIA
100
AcDbAlignedDimension
 13
7548.597946310992
 23
10084.36171387645
 33
0.0
 14
7548.597946310992
 24
4774.361713876455
 34
0.0
 50
-90.0
100
AcDbRotatedDimension
1001
ACAD
1000
DSTYLE
1002
{
1070
   147
1040
39.6875
1070
    77
1070
     0
1070
   340
1005
69
1070
   271
1070
     3
1002
}
  0
DIMENSION
  5
2AB
330
1F
100
AcDbEntity
  8
寸法
  6
Continuous
 62
   250
370
     5
100
AcDbDimension
  2
*D5
 10
8860.377008018455
 20
4774.361713876455
 30
0.0
 11
8860.377008018455
 21
5324.361713876457
 31
0.0
 70
    32
 71
     5
 42
1100.000000000004
  3
SIA
100
AcDbAlignedDimension
 13
8660.377008018455
 23
5874.361713876458
 33
0.0
 14
8660.377008018455
 24
4774.361713876455
 34
0.0
 50
-90.0
100
AcDbRotatedDimension
1001
ACAD
1000
DSTYLE
1002
{
1070
   147
1040
39.6875
1070
    77
1070
     0
1070
   340
1005
69
1070
   271
1070
     3
1002
}
  0
DIMENSION
  5
2AC
330
1F
100
AcDbEntity
  8
寸法
  6
Continuous
 62
   250
370
     5
100
AcDbDimension
  2
*D6
 10
-6784.175513041375
 20
3024.361713876455
 30
0.0
 11
-4784.175513041375
 21
3024.361713876455
 31
0.0
 70
    32
 71
     5
 42
3999.999999999999
  3
SIA
100
AcDbAlignedDimension
 13
-2784.175513041376
 23
3324.361713876455
 33
0.0
 14
-6784.175513041375
 24
3324.361713876455
 34
0.0
100
AcDbRotatedDimension
1001
ACAD
1000
DSTYLE
1002
{
1070
   147
1040
39.6875
1070
    77
1070
     0
1070
   340
1005
69
1002
}
  0
DIMENSION
  5
2AD
330
1F
100
AcDbEntity
  8
寸法
  6
Continuous
 62
   250
370
     5
100
AcDbDimension
  2
*D7
 10
-2784.175513041376
 20
3024.361713876455
 30
0.0
 11
-1034.175513041375
 21
3024.361713876455
 31
0.0
 70
    32
 71
     5
 42
3500.000000000001
  3
SIA
100
AcDbAlignedDimension
 13
715.8244869586249
 23
3324.361713876455
 33
0.0
 14
-2784.175513041376
 24
3324.361713876455
 34
0.0
100
AcDbRotatedDimension
1001
ACAD
1000
DSTYLE
1002
{
1070
   147
1040
39.6875
1070
    77
1070
     0
1070
   340
1005
69
1002
}
  0
DIMENSION
  5
2AE
330
1F
100
AcDbEntity
  8
寸法
  6
Continuous
 62
   250
370
     5
100
AcDbDimension
  2
*D8
 10
715.8244869586249
 20
3024.361713876455
 30
0.0
 11
3615.824486958625
 21
3024.361713876455
 31
0.0
 70
    32
 71
     5
 42
5800.0
  3
SIA
100
AcDbAlignedDimension
 13
6515.824486958625
 23
3324.361713876455
 33
0.0
 14
715.8244869586249
 24
3324.361713876455
 34
0.0
100
AcDbRotatedDimension
1001
ACAD
1000
DSTYLE
1002
{
1070
   147
1040
39.6875
1070
    77
1070
     0
1070
   340
1005
69
1002
}
  0
POLYLINE
  5
2AF
102
{ACAD_REACTORS
330
2B5
102
}
330
1F
100
AcDbEntity
  8
一般
  6
Continuous
 62
     7
370
     5
100
AcDb2dPolyline
 66
     1
 10
0.0
 20
0.0
 30
0.0
 70
     5
 75
     5
  0
VERTEX
  5
2B0
330
2AF
100
AcDbEntity
  8
一般
  6
Continuous
 62
     7
370
     5
100
AcDbVertex
100
AcDb2dVertex
 10
1039.353050402509
 20
7974.361713876454
 30
0.0
  0
VERTEX
  5
2B1
330
2AF
100
AcDbEntity
  8
一般
  6
Continuous
 62
     7
370
     5
100
AcDbVertex
100
AcDb2dVertex
 10
1089.353050402509
 20
7974.361713876454
 30
0.0
  0
VERTEX
  5
2B2
330
2AF
100
AcDbEntity
  8
一般
  6
Continuous
 62
     7
370
     5
100
AcDbVertex
100
AcDb2dVertex
 10
1089.353050402509
 20
5874.361713876458
 30
0.0
  0
VERTEX
  5
2B3
330
2AF
100
AcDbEntity
  8
一般
  6
Continuous
 62
     7
370
     5
100
AcDbVertex
100
AcDb2dVertex
 10
1039.353050402509
 20
5874.361713876458
 30
0.0
  0
SEQEND
  5
2B4
330
2AF
100
AcDbEntity
  8
一般
  6
Continuous
 62
     7
370
     5
  0
HATCH
  5
2B5
330
1F
100
AcDbEntity
  8
一般
  6
Continuous
 62
   253
370
     0
100
AcDbHatch
 10
0.0
 20
0.0
 30
0.0
210
0.0
220
0.0
230
1.0
  2
SOLID
 70
     1
 71
     1
 91
        1
 92
        1
 93
        4
 72
     1
 10
1039.353050402509
 20
7974.361713876454
 11
1089.353050402509
 21
7974.361713876454
 72
     1
 10
1089.353050402509
 20
7974.361713876454
 11
1089.353050402509
 21
5874.361713876458
 72
     1
 10
1089.353050402509
 20
5874.361713876458
 11
1039.353050402509
 21
5874.361713876458
 72
     1
 10
1039.353050402509
 20
5874.361713876458
 11
1039.353050402509
 21
7974.361713876454
 97
        1
330
2AF
 75
     0
 76
     1
 98
        1
 10
0.0
 20
0.0
  0
POLYLINE
  5
2B6
102
{ACAD_REACTORS
330
2BC
102
}
330
1F
100
AcDbEntity
  8
一般
  6
Continuous
 62
     7
370
     5
100
AcDb2dPolyline
 66
     1
 10
0.0
 20
0.0
 30
0.0
 70
     5
 75
     5
  0
VERTEX
  5
2B7
330
2B6
100
AcDbEntity
  8
一般
  6
Continuous
 62
     7
370
     5
100
AcDbVertex
100
AcDb2dVertex
 10
339.3530504025091
 20
7974.361713876454
 30
0.0
  0
VERTEX
  5
2B8
330
2B6
100
AcDbEntity
  8
一般
  6
Continuous
 62
     7
370
     5
100
AcDbVertex
100
AcDb2dVertex
 10
389.3530504025091
 20
7974.361713876454
 30
0.0
  0
VERTEX
  5
2B9
330
2B6
100
AcDbEntity
  8
一般
  6
Continuous
 62
     7
370
     5
100
AcDbVertex
100
AcDb2dVertex
 10
389.3530504025091
 20
5874.361713876458
 30
0.0
  0
VERTEX
  5
2BA
330
2B6
100
AcDbEntity
  8
一般
  6
Continuous
 62
     7
370
     5
100
AcDbVertex
100
AcDb2dVertex
 10
339.3530504025091
 20
5874.361713876458
 30
0.0
  0
SEQEND
  5
2BB
330
2B6
100
AcDbEntity
  8
一般
  6
Continuous
 62
     7
370
     5
  0
HATCH
  5
2BC
330
1F
100
AcDbEntity
  8
一般
  6
Continuous
 62
   253
370
     0
100
AcDbHatch
 10
0.0
 20
0.0
 30
0.0
210
0.0
220
0.0
230
1.0
  2
SOLID
 70
     1
 71
     1
 91
        1
 92
        1
 93
        4
 72
     1
 10
339.3530504025091
 20
7974.361713876454
 11
389.3530504025091
 21
7974.361713876454
 72
     1
 10
389.3530504025091
 20
7974.361713876454
 11
389.3530504025091
 21
5874.361713876458
 72
     1
 10
389.3530504025091
 20
5874.361713876458
 11
339.3530504025091
 21
5874.361713876458
 72
     1
 10
339.3530504025091
 20
5874.361713876458
 11
339.3530504025091
 21
7974.361713876454
 97
        1
330
2B6
 75
     0
 76
     1
 98
        1
 10
0.0
 20
0.0
  0
WIPEOUT
  5
2BD
330
1F
100
AcDbEntity
  8
一般
  6
Continuous
 62
     7
370
     5
 92
      152
310
98000000040000000C0000000E000000120000000C00000016000000000000C20C00000014000000010000006C0000000700000004000000000000000000E0BF000000000000E03F0000000000000000000000000000E03F000000000000E03F0000000000000000000000000000E03F2E3333333333D33F00000000000000
310
00000000000000E0BF2E3333333333D33F0000000000000000
100
AcDbWipeout
 90
        0
 10
-0.5
 20
0.2999999999999997
 30
0.0
 11
1.0
 21
0.0
 31
0.0
 12
0.0
 22
1.0
 32
0.0
 13
1.0
 23
1.0
340
0
 70
     4
280
     1
281
    50
282
    50
283
     0
360
0
 71
     2
 91
        5
 14
-0.5
 24
0.2999999999999997
 14
0.5
 24
0.2999999999999997
 14
0.5
 24
0.5
 14
-0.5
 24
0.5
 14
-0.5
 24
0.2999999999999997
  0
MTEXT
  5
2BE
330
1F
100
AcDbEntity
  8
一般
 62
     7
100
AcDbMText
 10
-9349.73106859693
 20
6320.122824987573
 30
0.0
 40
194.0277777777778
 41
0.0
 71
     1
 72
     1
  1
{\fＭＳ Ｐゴシック|b0|i0|c128|p0;\l舞台下手奥}
 73
     1
 44
0.8762322015334064
  0
WIPEOUT
  5
2BF
330
1F
100
AcDbEntity
  8
一般
  6
Continuous
 62
     7
370
     5
 92
      152
310
98000000040000000C0000000E000000120000000C00000016000000000000C20C00000014000000010000006C0000000700000004000000000000000000E0BF000000000000E03F0000000000000000000000000000E03F000000000000E03F0000000000000000000000000000E03F000000000000CCBC00000000000000
310
00000000000000E0BF000000000000CCBC0000000000000000
100
AcDbWipeout
 90
        0
 10
-0.5
 20
-0.0000000000000008
 30
0.0
 11
1.0
 21
0.0
 31
0.0
 12
0.0
 22
1.0
 32
0.0
 13
1.0
 23
1.0
340
0
 70
     4
280
     1
281
    50
282
    50
283
     0
360
0
 71
     2
 91
        5
 14
-0.5
 24
-0.0000000000000008
 14
0.5
 24
-0.0000000000000008
 14
0.5
 24
0.5
 14
-0.5
 24
0.5
 14
-0.5
 24
-0.0000000000000008
  0
MTEXT
  5
2C0
330
1F
100
AcDbEntity
  8
一般
 62
     7
100
AcDbMText
 10
-4329.731068596931
 20
6320.122824987573
 30
0.0
 40
194.0277777777778
 41
0.0
 71
     1
 72
     1
  1
{\fＭＳ Ｐゴシック|b0|i0|c128|p0;\l荷解}
 73
     1
 44
0.8762322015334064
  0
INSERT
  5
2C1
330
1F
100
AcDbEntity
  8
一般
 62
     8
100
AcDbBlockReference
  2
グループ-1
 10
0.0
 20
0.0
 30
0.0
  0
INSERT
  5
2C2
330
1F
100
AcDbEntity
  8
0
 62
     8
100
AcDbBlockReference
  2
グループ-2
 10
0.0
 20
0.0
 30
0.0
  0
POLYLINE
  5
2C3
102
{ACAD_REACTORS
330
2D7
102
}
330
1F
100
AcDbEntity
  8
一般
  6
Continuous
 62
     7
370
     5
100
AcDb2dPolyline
 66
     1
 10
0.0
 20
0.0
 30
0.0
 70
     5
 75
     5
  0
VERTEX
  5
2C4
330
2C3
100
AcDbEntity
  8
一般
  6
Continuous
 62
     7
370
     5
100
AcDbVertex
100
AcDb2dVertex
 10
958.0038926498097
 20
-5901.171633410242
 30
0.0
  0
VERTEX
  5
2C5
330
2C3
100
AcDbEntity
  8
一般
  6
Continuous
 62
     7
370
     5
100
AcDbVertex
100
AcDb2dVertex
 10
958.0038926498097
 20
-6401.171633410243
 30
0.0
  0
VERTEX
  5
2C6
330
2C3
100
AcDbEntity
  8
一般
  6
Continuous
 62
     7
370
     5
100
AcDbVertex
100
AcDb2dVertex
 10
258.0038926498088
 20
-6401.171633410243
 30
0.0
  0
VERTEX
  5
2C7
330
2C3
100
AcDbEntity
  8
一般
  6
Continuous
 62
     7
370
     5
100
AcDbVertex
100
AcDb2dVertex
 10
258.0038926498088
 20
-5901.171633410242
 30
0.0
  0
VERTEX
  5
2C8
330
2C3
100
AcDbEntity
  8
一般
  6
Continuous
 62
     7
370
     5
100
AcDbVertex
100
AcDb2dVertex
 10
-6541.996107350191
 20
-5901.171633410242
 30
0.0
  0
VERTEX
  5
2C9
330
2C3
100
AcDbEntity
  8
一般
  6
Continuous
 62
     7
370
     5
100
AcDbVertex
100
AcDb2dVertex
 10
-6541.996107350191
 20
-6551.171633410243
 30
0.0
  0
VERTEX
  5
2CA
330
2C3
100
AcDbEntity
  8
一般
  6
Continuous
 62
     7
370
     5
100
AcDbVertex
100
AcDb2dVertex
 10
-7241.996107350191
 20
-6551.171633410243
 30
0.0
  0
VERTEX
  5
2CB
330
2C3
100
AcDbEntity
  8
一般
  6
Continuous
 62
     7
370
     5
100
AcDbVertex
100
AcDb2dVertex
 10
-7241.996107350191
 20
-5701.171633410242
 30
0.0
  0
VERTEX
  5
2CC
330
2C3
100
AcDbEntity
  8
一般
  6
Continuous
 62
     7
370
     5
100
AcDbVertex
100
AcDb2dVertex
 10
-6741.996107350191
 20
-5701.171633410242
 30
0.0
  0
VERTEX
  5
2CD
330
2C3
100
AcDbEntity
  8
一般
  6
Continuous
 62
     7
370
     5
100
AcDbVertex
100
AcDb2dVertex
 10
-6741.996107350191
 20
-3776.171633410244
 30
0.0
  0
VERTEX
  5
2CE
330
2C3
100
AcDbEntity
  8
一般
  6
Continuous
 62
     7
370
     5
100
AcDbVertex
100
AcDb2dVertex
 10
-6541.996107350191
 20
-3776.171633410244
 30
0.0
  0
VERTEX
  5
2CF
330
2C3
100
AcDbEntity
  8
一般
  6
Continuous
 62
     7
370
     5
100
AcDbVertex
100
AcDb2dVertex
 10
-6541.996107350191
 20
-5701.171633410242
 30
0.0
  0
VERTEX
  5
2D0
330
2C3
100
AcDbEntity
  8
一般
  6
Continuous
 62
     7
370
     5
100
AcDbVertex
100
AcDb2dVertex
 10
958.0038926498097
 20
-5701.171633410242
 30
0.0
  0
VERTEX
  5
2D1
330
2C3
100
AcDbEntity
  8
一般
  6
Continuous
 62
     7
370
     5
100
AcDbVertex
100
AcDb2dVertex
 10
6758.00389264981
 20
-5701.171633410244
 30
0.0
  0
VERTEX
  5
2D2
330
2C3
100
AcDbEntity
  8
一般
  6
Continuous
 62
     7
370
     5
100
AcDbVertex
100
AcDb2dVertex
 10
6758.003892649809
 20
-5901.171633410242
 30
0.0
  0
VERTEX
  5
2D3
330
2C3
100
AcDbEntity
  8
一般
  6
Continuous
 62
     7
370
     5
100
AcDbVertex
100
AcDb2dVertex
 10
6758.00389264981
 20
-6401.171633410245
 30
0.0
  0
VERTEX
  5
2D4
330
2C3
100
AcDbEntity
  8
一般
  6
Continuous
 62
     7
370
     5
100
AcDbVertex
100
AcDb2dVertex
 10
6058.00389264981
 20
-6401.171633410245
 30
0.0
  0
VERTEX
  5
2D5
330
2C3
100
AcDbEntity
  8
一般
  6
Continuous
 62
     7
370
     5
100
AcDbVertex
100
AcDb2dVertex
 10
6058.00389264981
 20
-5901.171633410242
 30
0.0
  0
SEQEND
  5
2D6
330
2C3
100
AcDbEntity
  8
一般
  6
Continuous
 62
     7
370
     5
  0
HATCH
  5
2D7
330
1F
100
AcDbEntity
  8
一般
  6
Continuous
 62
    19
370
     0
100
AcDbHatch
 10
0.0
 20
0.0
 30
0.0
210
0.0
220
0.0
230
1.0
  2
SOLID
 70
     1
 71
     1
 91
        1
 92
        1
 93
       18
 72
     1
 10
958.0038926498097
 20
-5901.171633410242
 11
958.0038926498097
 21
-6401.171633410243
 72
     1
 10
958.0038926498097
 20
-6401.171633410243
 11
258.0038926498088
 21
-6401.171633410243
 72
     1
 10
258.0038926498088
 20
-6401.171633410243
 11
258.0038926498088
 21
-5901.171633410242
 72
     1
 10
258.0038926498088
 20
-5901.171633410242
 11
-6541.996107350191
 21
-5901.171633410242
 72
     1
 10
-6541.996107350191
 20
-5901.171633410242
 11
-6541.996107350191
 21
-6551.171633410243
 72
     1
 10
-6541.996107350191
 20
-6551.171633410243
 11
-7241.996107350191
 21
-6551.171633410243
 72
     1
 10
-7241.996107350191
 20
-6551.171633410243
 11
-7241.996107350191
 21
-5701.171633410242
 72
     1
 10
-7241.996107350191
 20
-5701.171633410242
 11
-6741.996107350191
 21
-5701.171633410242
 72
     1
 10
-6741.996107350191
 20
-5701.171633410242
 11
-6741.996107350191
 21
-3776.171633410244
 72
     1
 10
-6741.996107350191
 20
-3776.171633410244
 11
-6541.996107350191
 21
-3776.171633410244
 72
     1
 10
-6541.996107350191
 20
-3776.171633410244
 11
-6541.996107350191
 21
-5701.171633410242
 72
     1
 10
-6541.996107350191
 20
-5701.171633410242
 11
958.00389264981
 21
-5701.171633410242
 72
     1
 10
958.0038926498097
 20
-5701.171633410242
 11
6758.00389264981
 21
-5701.171633410244
 72
     1
 10
6758.00389264981
 20
-5701.171633410244
 11
6758.003892649809
 21
-5901.171633410242
 72
     1
 10
6758.003892649809
 20
-5901.171633410242
 11
6758.00389264981
 21
-6401.171633410245
 72
     1
 10
6758.00389264981
 20
-6401.171633410245
 11
6058.00389264981
 21
-6401.171633410245
 72
     1
 10
6058.00389264981
 20
-6401.171633410245
 11
6058.00389264981
 21
-5901.171633410242
 72
     1
 10
6058.00389264981
 20
-5901.171633410242
 11
958.00389264981
 21
-5901.171633410242
 97
        1
330
2C3
 75
     0
 76
     1
 98
        1
 10
0.0
 20
0.0
  0
POLYLINE
  5
2D8
102
{ACAD_REACTORS
330
2E6
102
}
330
1F
100
AcDbEntity
  8
一般
  6
Continuous
 62
     7
370
     5
100
AcDb2dPolyline
 66
     1
 10
0.0
 20
0.0
 30
0.0
 70
     5
 75
     5
  0
VERTEX
  5
2D9
330
2D8
100
AcDbEntity
  8
一般
  6
Continuous
 62
     7
370
     5
100
AcDbVertex
100
AcDb2dVertex
 10
6058.00389264981
 20
-12286.17163341024
 30
0.0
  0
VERTEX
  5
2DA
330
2D8
100
AcDbEntity
  8
一般
  6
Continuous
 62
     7
370
     5
100
AcDbVertex
100
AcDb2dVertex
 10
958.0038926498097
 20
-12286.17163341024
 30
0.0
  0
VERTEX
  5
2DB
330
2D8
100
AcDbEntity
  8
一般
  6
Continuous
 62
     7
370
     5
100
AcDbVertex
100
AcDb2dVertex
 10
958.0038926498097
 20
-12801.17163341024
 30
0.0
  0
VERTEX
  5
2DC
330
2D8
100
AcDbEntity
  8
一般
  6
Continuous
 62
     7
370
     5
100
AcDbVertex
100
AcDb2dVertex
 10
258.0038926498088
 20
-12801.17163341024
 30
0.0
  0
VERTEX
  5
2DD
330
2D8
100
AcDbEntity
  8
一般
  6
Continuous
 62
     7
370
     5
100
AcDbVertex
100
AcDb2dVertex
 10
258.0038926498088
 20
-12286.17163341024
 30
0.0
  0
VERTEX
  5
2DE
330
2D8
100
AcDbEntity
  8
一般
  6
Continuous
 62
     7
370
     5
100
AcDbVertex
100
AcDb2dVertex
 10
-2791.996107350192
 20
-12286.17163341024
 30
0.0
  0
VERTEX
  5
2DF
330
2D8
100
AcDbEntity
  8
一般
  6
Continuous
 62
     7
370
     5
100
AcDbVertex
100
AcDb2dVertex
 10
-2791.996107350192
 20
-12086.17163341024
 30
0.0
  0
VERTEX
  5
2E0
330
2D8
100
AcDbEntity
  8
一般
  6
Continuous
 62
     7
370
     5
100
AcDbVertex
100
AcDb2dVertex
 10
6758.003892649809
 20
-12086.17163341024
 30
0.0
  0
VERTEX
  5
2E1
330
2D8
100
AcDbEntity
  8
一般
  6
Continuous
 62
     7
370
     5
100
AcDbVertex
100
AcDb2dVertex
 10
6758.00389264981
 20
-12101.17163341024
 30
0.0
  0
VERTEX
  5
2E2
330
2D8
100
AcDbEntity
  8
一般
  6
Continuous
 62
     7
370
     5
100
AcDbVertex
100
AcDb2dVertex
 10
6758.003892649809
 20
-12286.17163341024
 30
0.0
  0
VERTEX
  5
2E3
330
2D8
100
AcDbEntity
  8
一般
  6
Continuous
 62
     7
370
     5
100
AcDbVertex
100
AcDb2dVertex
 10
6758.00389264981
 20
-12801.17163341024
 30
0.0
  0
VERTEX
  5
2E4
330
2D8
100
AcDbEntity
  8
一般
  6
Continuous
 62
     7
370
     5
100
AcDbVertex
100
AcDb2dVertex
 10
6058.00389264981
 20
-12801.17163341024
 30
0.0
  0
SEQEND
  5
2E5
330
2D8
100
AcDbEntity
  8
一般
  6
Continuous
 62
     7
370
     5
  0
HATCH
  5
2E6
330
1F
100
AcDbEntity
  8
一般
  6
Continuous
 62
     7
370
     0
100
AcDbHatch
 10
0.0
 20
0.0
 30
0.0
210
0.0
220
0.0
230
1.0
  2
SOLID
 70
     1
 71
     1
 91
        1
 92
        1
 93
       12
 72
     1
 10
6058.00389264981
 20
-12286.17163341024
 11
958.00389264981
 21
-12286.17163341024
 72
     1
 10
958.0038926498097
 20
-12286.17163341024
 11
958.0038926498097
 21
-12801.17163341024
 72
     1
 10
958.0038926498097
 20
-12801.17163341024
 11
258.0038926498088
 21
-12801.17163341024
 72
     1
 10
258.0038926498088
 20
-12801.17163341024
 11
258.0038926498088
 21
-12286.17163341024
 72
     1
 10
258.0038926498088
 20
-12286.17163341024
 11
-2791.996107350192
 21
-12286.17163341024
 72
     1
 10
-2791.996107350192
 20
-12286.17163341024
 11
-2791.996107350192
 21
-12086.17163341024
 72
     1
 10
-2791.996107350192
 20
-12086.17163341024
 11
6758.003892649808
 21
-12086.17163341024
 72
     1
 10
6758.003892649809
 20
-12086.17163341024
 11
6758.00389264981
 21
-12101.17163341024
 72
     1
 10
6758.00389264981
 20
-12101.17163341024
 11
6758.003892649809
 21
-12286.17163341024
 72
     1
 10
6758.003892649809
 20
-12286.17163341024
 11
6758.00389264981
 21
-12801.17163341024
 72
     1
 10
6758.00389264981
 20
-12801.17163341024
 11
6058.00389264981
 21
-12801.17163341024
 72
     1
 10
6058.00389264981
 20
-12801.17163341024
 11
6058.00389264981
 21
-12286.17163341024
 97
        1
330
2D8
 75
     0
 76
     1
 98
        1
 10
0.0
 20
0.0
  0
POLYLINE
  5
2E7
102
{ACAD_REACTORS
330
2F3
102
}
330
1F
100
AcDbEntity
  8
一般
  6
Continuous
 62
     7
370
     5
100
AcDb2dPolyline
 66
     1
 10
0.0
 20
0.0
 30
0.0
 70
     5
 75
     5
  0
VERTEX
  5
2E8
330
2E7
100
AcDbEntity
  8
一般
  6
Continuous
 62
     7
370
     5
100
AcDbVertex
100
AcDb2dVertex
 10
-7241.996107350191
 20
-10000.30847290535
 30
0.0
  0
VERTEX
  5
2E9
330
2E7
100
AcDbEntity
  8
一般
  6
Continuous
 62
     7
370
     5
100
AcDbVertex
100
AcDb2dVertex
 10
-6541.996107350191
 20
-10000.30847290535
 30
0.0
  0
VERTEX
  5
2EA
330
2E7
100
AcDbEntity
  8
一般
  6
Continuous
 62
     7
370
     5
100
AcDbVertex
100
AcDb2dVertex
 10
-6541.996107350191
 20
-12086.17163341024
 30
0.0
  0
VERTEX
  5
2EB
330
2E7
100
AcDbEntity
  8
一般
  6
Continuous
 62
     7
370
     5
100
AcDbVertex
100
AcDb2dVertex
 10
-3641.996107350192
 20
-12086.17163341024
 30
0.0
  0
VERTEX
  5
2EC
330
2E7
100
AcDbEntity
  8
一般
  6
Continuous
 62
     7
370
     5
100
AcDbVertex
100
AcDb2dVertex
 10
-3641.996107350192
 20
-13186.17163341024
 30
0.0
  0
VERTEX
  5
2ED
330
2E7
100
AcDbEntity
  8
一般
  6
Continuous
 62
     7
370
     5
100
AcDbVertex
100
AcDb2dVertex
 10
-3841.996107350192
 20
-13186.17163341024
 30
0.0
  0
VERTEX
  5
2EE
330
2E7
100
AcDbEntity
  8
一般
  6
Continuous
 62
     7
370
     5
100
AcDbVertex
100
AcDb2dVertex
 10
-3841.996107350192
 20
-12286.17163341024
 30
0.0
  0
VERTEX
  5
2EF
330
2E7
100
AcDbEntity
  8
一般
  6
Continuous
 62
     7
370
     5
100
AcDbVertex
100
AcDb2dVertex
 10
-6541.996107350191
 20
-12286.17163341024
 30
0.0
  0
VERTEX
  5
2F0
330
2E7
100
AcDbEntity
  8
一般
  6
Continuous
 62
     7
370
     5
100
AcDbVertex
100
AcDb2dVertex
 10
-6541.996107350191
 20
-12801.17163341024
 30
0.0
  0
VERTEX
  5
2F1
330
2E7
100
AcDbEntity
  8
一般
  6
Continuous
 62
     7
370
     5
100
AcDbVertex
100
AcDb2dVertex
 10
-7241.996107350191
 20
-12801.17163341024
 30
0.0
  0
SEQEND
  5
2F2
330
2E7
100
AcDbEntity
  8
一般
  6
Continuous
 62
     7
370
     5
  0
HATCH
  5
2F3
330
1F
100
AcDbEntity
  8
一般
  6
Continuous
 62
    19
370
     0
100
AcDbHatch
 10
0.0
 20
0.0
 30
0.0
210
0.0
220
0.0
230
1.0
  2
SOLID
 70
     1
 71
     1
 91
        1
 92
        1
 93
       10
 72
     1
 10
-7241.996107350191
 20
-10000.30847290535
 11
-6541.996107350191
 21
-10000.30847290535
 72
     1
 10
-6541.996107350191
 20
-10000.30847290535
 11
-6541.996107350191
 21
-12086.17163341024
 72
     1
 10
-6541.996107350191
 20
-12086.17163341024
 11
-3641.996107350192
 21
-12086.17163341024
 72
     1
 10
-3641.996107350192
 20
-12086.17163341024
 11
-3641.996107350192
 21
-13186.17163341024
 72
     1
 10
-3641.996107350192
 20
-13186.17163341024
 11
-3841.996107350192
 21
-13186.17163341024
 72
     1
 10
-3841.996107350192
 20
-13186.17163341024
 11
-3841.996107350192
 21
-12286.17163341024
 72
     1
 10
-3841.996107350192
 20
-12286.17163341024
 11
-6541.996107350191
 21
-12286.17163341024
 72
     1
 10
-6541.996107350191
 20
-12286.17163341024
 11
-6541.996107350191
 21
-12801.17163341024
 72
     1
 10
-6541.996107350191
 20
-12801.17163341024
 11
-7241.996107350191
 21
-12801.17163341024
 72
     1
 10
-7241.996107350191
 20
-12801.17163341024
 11
-7241.996107350191
 21
-10000.30847290535
 97
        1
330
2E7
 75
     0
 76
     1
 98
        1
 10
0.0
 20
0.0
  0
WIPEOUT
  5
2F4
330
1F
100
AcDbEntity
  8
一般
  6
Continuous
 62
     7
370
     5
 92
      152
310
98000000040000000C0000000E000000120000000C00000016000000000000C20C00000014000000010000006C0000000700000004000000602CE400FF49BCC0E5CB2AF02B97B9C00000000000000000602CE400FF8DB9C0E5CB2AF02B97B9C00000000000000000602CE400FF8DB9C0E5CB2AF02BC9B9C000000000000000
310
00602CE400FF49BCC0E5CB2AF02BC9B9C00000000000000000
100
AcDbWipeout
 90
        0
 10
-7241.996107350191
 20
-6601.171633410243
 30
0.0
 11
700.0
 21
0.0
 31
0.0
 12
0.0
 22
700.0
 32
0.0
 13
1.0
 23
1.0
340
0
 70
     4
280
     1
281
    50
282
    50
283
     0
360
0
 71
     2
 91
        5
 14
-0.5
 24
0.4285714285714288
 14
0.5
 24
0.4285714285714288
 14
0.5
 24
0.5
 14
-0.5
 24
0.5
 14
-0.5
 24
0.4285714285714288
  0
POLYLINE
  5
2F5
330
1F
100
AcDbEntity
  8
一般
  6
Continuous
 62
     7
370
     5
100
AcDb2dPolyline
 66
     1
 10
0.0
 20
0.0
 30
0.0
 70
     5
 75
     5
  0
VERTEX
  5
2F6
330
2F5
100
AcDbEntity
  8
一般
  6
Continuous
 62
     7
370
     5
100
AcDbVertex
100
AcDb2dVertex
 10
-7241.996107350191
 20
-6551.171633410243
 30
0.0
  0
VERTEX
  5
2F7
330
2F5
100
AcDbEntity
  8
一般
  6
Continuous
 62
     7
370
     5
100
AcDbVertex
100
AcDb2dVertex
 10
-6541.996107350191
 20
-6551.171633410243
 30
0.0
  0
VERTEX
  5
2F8
330
2F5
100
AcDbEntity
  8
一般
  6
Continuous
 62
     7
370
     5
100
AcDbVertex
100
AcDb2dVertex
 10
-6541.996107350191
 20
-6601.171633410243
 30
0.0
  0
VERTEX
  5
2F9
330
2F5
100
AcDbEntity
  8
一般
  6
Continuous
 62
     7
370
     5
100
AcDbVertex
100
AcDb2dVertex
 10
-7241.996107350191
 20
-6601.171633410243
 30
0.0
  0
SEQEND
  5
2FA
330
2F5
100
AcDbEntity
  8
一般
  6
Continuous
 62
     7
370
     5
  0
WIPEOUT
  5
2FB
330
1F
100
AcDbEntity
  8
一般
  6
Continuous
 62
     7
370
     5
 92
      152
310
98000000040000000C0000000E000000120000000C00000016000000000000C20C00000014000000010000006C0000000700000004000000602CE400FF49BCC018480A7C2788C3C00000000000000000602CE400FF8DB9C018480A7C2788C3C00000000000000000602CE400FF8DB9C018480A7C27A1C3C000000000000000
310
00602CE400FF49BCC018480A7C27A1C3C00000000000000000
100
AcDbWipeout
 90
        0
 10
-7241.996107350191
 20
-10050.30847290535
 30
0.0
 11
700.0
 21
0.0
 31
0.0
 12
0.0
 22
700.0
 32
0.0
 13
1.0
 23
1.0
340
0
 70
     4
280
     1
281
    50
282
    50
283
     0
360
0
 71
     2
 91
        5
 14
-0.5
 24
0.4285714285714288
 14
0.5
 24
0.4285714285714288
 14
0.5
 24
0.5
 14
-0.5
 24
0.5
 14
-0.5
 24
0.4285714285714288
  0
POLYLINE
  5
2FC
330
1F
100
AcDbEntity
  8
一般
  6
Continuous
 62
     7
370
     5
100
AcDb2dPolyline
 66
     1
 10
0.0
 20
0.0
 30
0.0
 70
     5
 75
     5
  0
VERTEX
  5
2FD
330
2FC
100
AcDbEntity
  8
一般
  6
Continuous
 62
     7
370
     5
100
AcDbVertex
100
AcDb2dVertex
 10
-7241.996107350191
 20
-10000.30847290535
 30
0.0
  0
VERTEX
  5
2FE
330
2FC
100
AcDbEntity
  8
一般
  6
Continuous
 62
     7
370
     5
100
AcDbVertex
100
AcDb2dVertex
 10
-6541.996107350191
 20
-10000.30847290535
 30
0.0
  0
VERTEX
  5
2FF
330
2FC
100
AcDbEntity
  8
一般
  6
Continuous
 62
     7
370
     5
100
AcDbVertex
100
AcDb2dVertex
 10
-6541.996107350191
 20
-10050.30847290535
 30
0.0
  0
VERTEX
  5
300
330
2FC
100
AcDbEntity
  8
一般
  6
Continuous
 62
     7
370
     5
100
AcDbVertex
100
AcDb2dVertex
 10
-7241.996107350191
 20
-10050.30847290535
 30
0.0
  0
SEQEND
  5
301
330
2FC
100
AcDbEntity
  8
一般
  6
Continuous
 62
     7
370
     5
  0
POLYLINE
  5
302
102
{ACAD_REACTORS
330
308
102
}
330
1F
100
AcDbEntity
  8
一般
  6
Continuous
 62
     7
370
     5
100
AcDb2dPolyline
 66
     1
 10
0.0
 20
0.0
 30
0.0
 70
     5
 75
     5
  0
VERTEX
  5
303
330
302
100
AcDbEntity
  8
一般
  6
Continuous
 62
     7
370
     5
100
AcDbVertex
100
AcDb2dVertex
 10
-7241.996107350191
 20
-8800.30847290535
 30
0.0
  0
VERTEX
  5
304
330
302
100
AcDbEntity
  8
一般
  6
Continuous
 62
     7
370
     5
100
AcDbVertex
100
AcDb2dVertex
 10
-7161.996107350191
 20
-8800.30847290535
 30
0.0
  0
VERTEX
  5
305
330
302
100
AcDbEntity
  8
一般
  6
Continuous
 62
     7
370
     5
100
AcDbVertex
100
AcDb2dVertex
 10
-7161.996107350191
 20
-10000.30847290535
 30
0.0
  0
VERTEX
  5
306
330
302
100
AcDbEntity
  8
一般
  6
Continuous
 62
     7
370
     5
100
AcDbVertex
100
AcDb2dVertex
 10
-7241.996107350191
 20
-10000.30847290535
 30
0.0
  0
SEQEND
  5
307
330
302
100
AcDbEntity
  8
一般
  6
Continuous
 62
     7
370
     5
  0
HATCH
  5
308
330
1F
100
AcDbEntity
  8
一般
  6
Continuous
 62
   253
370
     0
100
AcDbHatch
 10
0.0
 20
0.0
 30
0.0
210
0.0
220
0.0
230
1.0
  2
SOLID
 70
     1
 71
     1
 91
        1
 92
        1
 93
        4
 72
     1
 10
-7241.996107350191
 20
-8800.30847290535
 11
-7161.996107350191
 21
-8800.30847290535
 72
     1
 10
-7161.996107350191
 20
-8800.30847290535
 11
-7161.996107350191
 21
-10000.30847290535
 72
     1
 10
-7161.996107350191
 20
-10000.30847290535
 11
-7241.996107350191
 21
-10000.30847290535
 72
     1
 10
-7241.996107350191
 20
-10000.30847290535
 11
-7241.996107350191
 21
-8800.30847290535
 97
        1
330
302
 75
     0
 76
     1
 98
        1
 10
0.0
 20
0.0
  0
WIPEOUT
  5
309
330
1F
100
AcDbEntity
  8
一般
  6
Continuous
 62
     7
370
     5
 92
      152
310
98000000040000000C0000000E000000120000000C00000016000000000000C20C00000014000000010000006C0000000700000004000000612CE400FF49BCC0E6CB2AF02B97B9C00000000000000000612CE400FFB3BBC0E6CB2AF02B97B9C00000000000000000612CE400FFB3BBC0309014F84EC8B9C000000000000000
310
00612CE400FF49BCC0309014F84EC8B9C00000000000000000
100
AcDbWipeout
 90
        0
 10
-7241.996107350191
 20
-6600.308472905351
 30
0.0
 11
150.0
 21
0.0
 31
0.0
 12
0.0
 22
150.0
 32
0.0
 13
1.0
 23
1.0
340
0
 70
     4
280
     1
281
    50
282
    50
283
     0
360
0
 71
     2
 91
        5
 14
-0.5000000000000071
 24
0.1724210700326196
 14
0.4999999999999929
 24
0.1724210700326196
 14
0.4999999999999929
 24
0.5000000000000071
 14
-0.5000000000000071
 24
0.5000000000000071
 14
-0.5000000000000071
 24
0.1724210700326196
  0
POLYLINE
  5
30A
330
1F
100
AcDbEntity
  8
一般
  6
Continuous
 62
     7
370
     5
100
AcDb2dPolyline
 66
     1
 10
0.0
 20
0.0
 30
0.0
 70
     5
 75
     5
  0
VERTEX
  5
30B
330
30A
100
AcDbEntity
  8
一般
  6
Continuous
 62
     7
370
     5
100
AcDbVertex
100
AcDb2dVertex
 10
-7241.996107350191
 20
-6551.171633410243
 30
0.0
  0
VERTEX
  5
30C
330
30A
100
AcDbEntity
  8
一般
  6
Continuous
 62
     7
370
     5
100
AcDbVertex
100
AcDb2dVertex
 10
-7091.996107350191
 20
-6551.171633410243
 30
0.0
  0
VERTEX
  5
30D
330
30A
100
AcDbEntity
  8
一般
  6
Continuous
 62
     7
370
     5
100
AcDbVertex
100
AcDb2dVertex
 10
-7091.996107350191
 20
-6600.308472905351
 30
0.0
  0
VERTEX
  5
30E
330
30A
100
AcDbEntity
  8
一般
  6
Continuous
 62
     7
370
     5
100
AcDbVertex
100
AcDb2dVertex
 10
-7241.996107350191
 20
-6600.308472905351
 30
0.0
  0
SEQEND
  5
30F
330
30A
100
AcDbEntity
  8
一般
  6
Continuous
 62
     7
370
     5
  0
WIPEOUT
  5
310
330
1F
100
AcDbEntity
  8
一般
  6
Continuous
 62
     7
370
     5
 92
      152
310
98000000040000000C0000000E000000120000000C00000016000000000000C20C00000014000000010000006C0000000700000004000000612CE400FF23BAC0E6CB2AF02B97B9C00000000000000000612CE400FF8DB9C0E6CB2AF02B97B9C00000000000000000612CE400FF8DB9C0309014F84EC8B9C000000000000000
310
00612CE400FF23BAC0309014F84EC8B9C00000000000000000
100
AcDbWipeout
 90
        0
 10
-6691.996107350191
 20
-6600.308472905351
 30
0.0
 11
150.0
 21
0.0
 31
0.0
 12
0.0
 22
150.0
 32
0.0
 13
1.0
 23
1.0
340
0
 70
     4
280
     1
281
    50
282
    50
283
     0
360
0
 71
     2
 91
        5
 14
-0.5000000000000071
 24
0.1724210700326196
 14
0.4999999999999929
 24
0.1724210700326196
 14
0.4999999999999929
 24
0.5000000000000071
 14
-0.5000000000000071
 24
0.5000000000000071
 14
-0.5000000000000071
 24
0.1724210700326196
  0
POLYLINE
  5
311
330
1F
100
AcDbEntity
  8
一般
  6
Continuous
 62
     7
370
     5
100
AcDb2dPolyline
 66
     1
 10
0.0
 20
0.0
 30
0.0
 70
     5
 75
     5
  0
VERTEX
  5
312
330
311
100
AcDbEntity
  8
一般
  6
Continuous
 62
     7
370
     5
100
AcDbVertex
100
AcDb2dVertex
 10
-6691.996107350191
 20
-6551.171633410243
 30
0.0
  0
VERTEX
  5
313
330
311
100
AcDbEntity
  8
一般
  6
Continuous
 62
     7
370
     5
100
AcDbVertex
100
AcDb2dVertex
 10
-6541.996107350191
 20
-6551.171633410243
 30
0.0
  0
VERTEX
  5
314
330
311
100
AcDbEntity
  8
一般
  6
Continuous
 62
     7
370
     5
100
AcDbVertex
100
AcDb2dVertex
 10
-6541.996107350191
 20
-6600.308472905351
 30
0.0
  0
VERTEX
  5
315
330
311
100
AcDbEntity
  8
一般
  6
Continuous
 62
     7
370
     5
100
AcDbVertex
100
AcDb2dVertex
 10
-6691.996107350191
 20
-6600.308472905351
 30
0.0
  0
SEQEND
  5
316
330
311
100
AcDbEntity
  8
一般
  6
Continuous
 62
     7
370
     5
  0
WIPEOUT
  5
317
330
1F
100
AcDbEntity
  8
一般
  6
Continuous
 62
     7
370
     5
 92
      152
310
98000000040000000C0000000E000000120000000C00000016000000000000C20C00000014000000010000006C0000000700000004000000612CE400FF49BCC019480A7C2788C3C00000000000000000612CE400FFB3BBC019480A7C2788C3C00000000000000000612CE400FFB3BBC03D2AFFFFB8A0C3C000000000000000
310
00612CE400FF49BCC03D2AFFFFB8A0C3C00000000000000000
100
AcDbWipeout
 90
        0
 10
-7241.996107350191
 20
-10049.44531240046
 30
0.0
 11
150.0
 21
0.0
 31
0.0
 12
0.0
 22
150.0
 32
0.0
 13
1.0
 23
1.0
340
0
 70
     4
280
     1
281
    50
282
    50
283
     0
360
0
 71
     2
 91
        5
 14
-0.5000000000000071
 24
0.172421070032641
 14
0.4999999999999929
 24
0.172421070032641
 14
0.4999999999999929
 24
0.5000000000000142
 14
-0.5000000000000071
 24
0.5000000000000142
 14
-0.5000000000000071
 24
0.172421070032641
  0
POLYLINE
  5
318
330
1F
100
AcDbEntity
  8
一般
  6
Continuous
 62
     7
370
     5
100
AcDb2dPolyline
 66
     1
 10
0.0
 20
0.0
 30
0.0
 70
     5
 75
     5
  0
VERTEX
  5
319
330
318
100
AcDbEntity
  8
一般
  6
Continuous
 62
     7
370
     5
100
AcDbVertex
100
AcDb2dVertex
 10
-7241.996107350191
 20
-10000.30847290535
 30
0.0
  0
VERTEX
  5
31A
330
318
100
AcDbEntity
  8
一般
  6
Continuous
 62
     7
370
     5
100
AcDbVertex
100
AcDb2dVertex
 10
-7091.996107350191
 20
-10000.30847290535
 30
0.0
  0
VERTEX
  5
31B
330
318
100
AcDbEntity
  8
一般
  6
Continuous
 62
     7
370
     5
100
AcDbVertex
100
AcDb2dVertex
 10
-7091.996107350191
 20
-10049.44531240046
 30
0.0
  0
VERTEX
  5
31C
330
318
100
AcDbEntity
  8
一般
  6
Continuous
 62
     7
370
     5
100
AcDbVertex
100
AcDb2dVertex
 10
-7241.996107350191
 20
-10049.44531240046
 30
0.0
  0
SEQEND
  5
31D
330
318
100
AcDbEntity
  8
一般
  6
Continuous
 62
     7
370
     5
  0
WIPEOUT
  5
31E
330
1F
100
AcDbEntity
  8
一般
  6
Continuous
 62
     7
370
     5
 92
      152
310
98000000040000000C0000000E000000120000000C00000016000000000000C20C00000014000000010000006C0000000700000004000000612CE400FF23BAC019480A7C2788C3C00000000000000000612CE400FF8DB9C019480A7C2788C3C00000000000000000612CE400FF8DB9C03D2AFFFFB8A0C3C000000000000000
310
00612CE400FF23BAC03D2AFFFFB8A0C3C00000000000000000
100
AcDbWipeout
 90
        0
 10
-6691.996107350191
 20
-10049.44531240046
 30
0.0
 11
150.0
 21
0.0
 31
0.0
 12
0.0
 22
150.0
 32
0.0
 13
1.0
 23
1.0
340
0
 70
     4
280
     1
281
    50
282
    50
283
     0
360
0
 71
     2
 91
        5
 14
-0.5000000000000071
 24
0.172421070032641
 14
0.4999999999999929
 24
0.172421070032641
 14
0.4999999999999929
 24
0.5000000000000142
 14
-0.5000000000000071
 24
0.5000000000000142
 14
-0.5000000000000071
 24
0.172421070032641
  0
POLYLINE
  5
31F
330
1F
100
AcDbEntity
  8
一般
  6
Continuous
 62
     7
370
     5
100
AcDb2dPolyline
 66
     1
 10
0.0
 20
0.0
 30
0.0
 70
     5
 75
     5
  0
VERTEX
  5
320
330
31F
100
AcDbEntity
  8
一般
  6
Continuous
 62
     7
370
     5
100
AcDbVertex
100
AcDb2dVertex
 10
-6691.996107350191
 20
-10000.30847290535
 30
0.0
  0
VERTEX
  5
321
330
31F
100
AcDbEntity
  8
一般
  6
Continuous
 62
     7
370
     5
100
AcDbVertex
100
AcDb2dVertex
 10
-6541.996107350191
 20
-10000.30847290535
 30
0.0
  0
VERTEX
  5
322
330
31F
100
AcDbEntity
  8
一般
  6
Continuous
 62
     7
370
     5
100
AcDbVertex
100
AcDb2dVertex
 10
-6541.996107350191
 20
-10049.44531240046
 30
0.0
  0
VERTEX
  5
323
330
31F
100
AcDbEntity
  8
一般
  6
Continuous
 62
     7
370
     5
100
AcDbVertex
100
AcDb2dVertex
 10
-6691.996107350191
 20
-10049.44531240046
 30
0.0
  0
SEQEND
  5
324
330
31F
100
AcDbEntity
  8
一般
  6
Continuous
 62
     7
370
     5
  0
POLYLINE
  5
325
102
{ACAD_REACTORS
330
32B
102
}
330
1F
100
AcDbEntity
  8
一般
  6
Continuous
 62
     7
370
     5
100
AcDb2dPolyline
 66
     1
 10
0.0
 20
0.0
 30
0.0
 70
     5
 75
     5
  0
VERTEX
  5
326
330
325
100
AcDbEntity
  8
一般
  6
Continuous
 62
     7
370
     5
100
AcDbVertex
100
AcDb2dVertex
 10
-1416.996107350191
 20
-7851.171633410247
 30
0.0
  0
VERTEX
  5
327
330
325
100
AcDbEntity
  8
一般
  6
Continuous
 62
     7
370
     5
100
AcDbVertex
100
AcDb2dVertex
 10
-1366.996107350191
 20
-7851.171633410247
 30
0.0
  0
VERTEX
  5
328
330
325
100
AcDbEntity
  8
一般
  6
Continuous
 62
     7
370
     5
100
AcDbVertex
100
AcDb2dVertex
 10
-1366.996107350191
 20
-12086.17163341024
 30
0.0
  0
VERTEX
  5
329
330
325
100
AcDbEntity
  8
一般
  6
Continuous
 62
     7
370
     5
100
AcDbVertex
100
AcDb2dVertex
 10
-1416.996107350191
 20
-12086.17163341024
 30
0.0
  0
SEQEND
  5
32A
330
325
100
AcDbEntity
  8
一般
  6
Continuous
 62
     7
370
     5
  0
HATCH
  5
32B
330
1F
100
AcDbEntity
  8
一般
  6
Continuous
 62
     8
370
     0
100
AcDbHatch
 10
0.0
 20
0.0
 30
0.0
210
0.0
220
0.0
230
1.0
  2
SOLID
 70
     1
 71
     1
 91
        1
 92
        1
 93
        4
 72
     1
 10
-1416.996107350191
 20
-7851.171633410247
 11
-1366.996107350191
 21
-7851.171633410247
 72
     1
 10
-1366.996107350191
 20
-7851.171633410247
 11
-1366.996107350191
 21
-12086.17163341024
 72
     1
 10
-1366.996107350191
 20
-12086.17163341024
 11
-1416.996107350191
 21
-12086.17163341024
 72
     1
 10
-1416.996107350191
 20
-12086.17163341024
 11
-1416.996107350191
 21
-7851.171633410247
 97
        1
330
325
 75
     0
 76
     1
 98
        1
 10
0.0
 20
0.0
  0
POLYLINE
  5
32C
102
{ACAD_REACTORS
330
332
102
}
330
1F
100
AcDbEntity
  8
一般
  6
Continuous
 62
     7
370
     5
100
AcDb2dPolyline
 66
     1
 10
0.0
 20
0.0
 30
0.0
 70
     5
 75
     5
  0
VERTEX
  5
32D
330
32C
100
AcDbEntity
  8
一般
  6
Continuous
 62
     7
370
     5
100
AcDbVertex
100
AcDb2dVertex
 10
-1416.996107350191
 20
-7826.171633410247
 30
0.0
  0
VERTEX
  5
32E
330
32C
100
AcDbEntity
  8
一般
  6
Continuous
 62
     7
370
     5
100
AcDbVertex
100
AcDb2dVertex
 10
3408.00389264981
 20
-7826.171633410247
 30
0.0
  0
VERTEX
  5
32F
330
32C
100
AcDbEntity
  8
一般
  6
Continuous
 62
     7
370
     5
100
AcDbVertex
100
AcDb2dVertex
 10
3408.00389264981
 20
-7876.171633410241
 30
0.0
  0
VERTEX
  5
330
330
32C
100
AcDbEntity
  8
一般
  6
Continuous
 62
     7
370
     5
100
AcDbVertex
100
AcDb2dVertex
 10
-1416.996107350191
 20
-7876.171633410241
 30
0.0
  0
SEQEND
  5
331
330
32C
100
AcDbEntity
  8
一般
  6
Continuous
 62
     7
370
     5
  0
HATCH
  5
332
330
1F
100
AcDbEntity
  8
一般
  6
Continuous
 62
     8
370
     0
100
AcDbHatch
 10
0.0
 20
0.0
 30
0.0
210
0.0
220
0.0
230
1.0
  2
SOLID
 70
     1
 71
     1
 91
        1
 92
        1
 93
        4
 72
     1
 10
-1416.996107350191
 20
-7826.171633410247
 11
3408.00389264981
 21
-7826.171633410247
 72
     1
 10
3408.00389264981
 20
-7826.171633410247
 11
3408.00389264981
 21
-7876.171633410241
 72
     1
 10
3408.00389264981
 20
-7876.171633410241
 11
-1416.996107350192
 21
-7876.171633410241
 72
     1
 10
-1416.996107350191
 20
-7876.171633410241
 11
-1416.996107350191
 21
-7826.171633410247
 97
        1
330
32C
 75
     0
 76
     1
 98
        1
 10
0.0
 20
0.0
  0
WIPEOUT
  5
333
330
1F
100
AcDbEntity
  8
一般
  6
Continuous
 62
     7
370
     5
 92
      152
310
98000000040000000C0000000E000000120000000C00000016000000000000C20C00000014000000010000006C000000070000000400000042A737FE01A0AA40E4CB2AF02B0DB7C0000000000000000042A737FE01F8AC40E4CB2AF02B0DB7C0000000000000000042A737FE01F8AC40E8CB2AF02BABBEC000000000000000
310
0042A737FE01A0AA40E8CB2AF02BABBEC00000000000000000
100
AcDbWipeout
 90
        0
 10
3408.00389264981
 20
-7851.171633410245
 30
0.0
 11
1950.000000000003
 21
0.0
 31
0.0
 12
0.0
 22
1950.000000000003
 32
0.0
 13
1.0
 23
1.0
340
0
 70
     4
280
     1
281
    50
282
    50
283
     0
360
0
 71
     2
 91
        5
 14
-0.4999999999999998
 24
-0.5
 14
-0.346153846153846
 24
-0.5
 14
-0.346153846153846
 24
0.5
 14
-0.4999999999999998
 24
0.5
 14
-0.4999999999999998
 24
-0.5
  0
POLYLINE
  5
334
330
1F
100
AcDbEntity
  8
一般
  6
Continuous
 62
     7
370
     5
100
AcDb2dPolyline
 66
     1
 10
0.0
 20
0.0
 30
0.0
 70
     5
 75
     5
  0
VERTEX
  5
335
330
334
100
AcDbEntity
  8
一般
  6
Continuous
 62
     7
370
     5
100
AcDbVertex
100
AcDb2dVertex
 10
3408.00389264981
 20
-5901.171633410242
 30
0.0
  0
VERTEX
  5
336
330
334
100
AcDbEntity
  8
一般
  6
Continuous
 62
     7
370
     5
100
AcDbVertex
100
AcDb2dVertex
 10
3708.00389264981
 20
-5901.171633410242
 30
0.0
  0
VERTEX
  5
337
330
334
100
AcDbEntity
  8
一般
  6
Continuous
 62
     7
370
     5
100
AcDbVertex
100
AcDb2dVertex
 10
3708.00389264981
 20
-7851.171633410245
 30
0.0
  0
VERTEX
  5
338
330
334
100
AcDbEntity
  8
一般
  6
Continuous
 62
     7
370
     5
100
AcDbVertex
100
AcDb2dVertex
 10
3408.00389264981
 20
-7851.171633410245
 30
0.0
  0
SEQEND
  5
339
330
334
100
AcDbEntity
  8
一般
  6
Continuous
 62
     7
370
     5
  0
WIPEOUT
  5
33A
330
1F
100
AcDbEntity
  8
一般
  6
Continuous
 62
     7
370
     5
 92
      152
310
98000000040000000C0000000E000000120000000C00000016000000000000C20C00000014000000010000006C000000070000000400000044A737FE01F8AC40E4CB2AF02B0DB7C0000000000000000045A737FE0150AF40E4CB2AF02B0DB7C0000000000000000045A737FE0150AF40E8CB2AF02BABBEC000000000000000
310
0044A737FE01F8AC40E8CB2AF02BABBEC00000000000000000
100
AcDbWipeout
 90
        0
 10
3708.00389264981
 20
-7851.171633410245
 30
0.0
 11
1950.000000000003
 21
0.0
 31
0.0
 12
0.0
 22
1950.000000000003
 32
0.0
 13
1.0
 23
1.0
340
0
 70
     4
280
     1
281
    50
282
    50
283
     0
360
0
 71
     2
 91
        5
 14
-0.4999999999999993
 24
-0.5
 14
-0.3461538461538454
 24
-0.5
 14
-0.3461538461538454
 24
0.5
 14
-0.4999999999999993
 24
0.5
 14
-0.4999999999999993
 24
-0.5
  0
POLYLINE
  5
33B
330
1F
100
AcDbEntity
  8
一般
  6
Continuous
 62
     7
370
     5
100
AcDb2dPolyline
 66
     1
 10
0.0
 20
0.0
 30
0.0
 70
     5
 75
     5
  0
VERTEX
  5
33C
330
33B
100
AcDbEntity
  8
一般
  6
Continuous
 62
     7
370
     5
100
AcDbVertex
100
AcDb2dVertex
 10
3708.00389264981
 20
-5901.171633410242
 30
0.0
  0
VERTEX
  5
33D
330
33B
100
AcDbEntity
  8
一般
  6
Continuous
 62
     7
370
     5
100
AcDbVertex
100
AcDb2dVertex
 10
4008.003892649811
 20
-5901.171633410242
 30
0.0
  0
VERTEX
  5
33E
330
33B
100
AcDbEntity
  8
一般
  6
Continuous
 62
     7
370
     5
100
AcDbVertex
100
AcDb2dVertex
 10
4008.003892649811
 20
-7851.171633410245
 30
0.0
  0
VERTEX
  5
33F
330
33B
100
AcDbEntity
  8
一般
  6
Continuous
 62
     7
370
     5
100
AcDbVertex
100
AcDb2dVertex
 10
3708.00389264981
 20
-7851.171633410245
 30
0.0
  0
SEQEND
  5
340
330
33B
100
AcDbEntity
  8
一般
  6
Continuous
 62
     7
370
     5
  0
WIPEOUT
  5
341
330
1F
100
AcDbEntity
  8
一般
  6
Continuous
 62
     7
370
     5
 92
      152
310
98000000040000000C0000000E000000120000000C00000016000000000000C20C00000014000000010000006C000000070000000400000043A737FE0150AF40E4CB2AF02B0DB7C00000000000000000A2D31BFF00D4B040E4CB2AF02B0DB7C00000000000000000A2D31BFF00D4B040E8CB2AF02BABBEC000000000000000
310
0043A737FE0150AF40E8CB2AF02BABBEC00000000000000000
100
AcDbWipeout
 90
        0
 10
4008.003892649811
 20
-7851.171633410245
 30
0.0
 11
1950.000000000003
 21
0.0
 31
0.0
 12
0.0
 22
1950.000000000003
 32
0.0
 13
1.0
 23
1.0
340
0
 70
     4
280
     1
281
    50
282
    50
283
     0
360
0
 71
     2
 91
        5
 14
-0.5000000000000004
 24
-0.5
 14
-0.3461538461538467
 24
-0.5
 14
-0.3461538461538467
 24
0.5
 14
-0.5000000000000004
 24
0.5
 14
-0.5000000000000004
 24
-0.5
  0
POLYLINE
  5
342
330
1F
100
AcDbEntity
  8
一般
  6
Continuous
 62
     7
370
     5
100
AcDb2dPolyline
 66
     1
 10
0.0
 20
0.0
 30
0.0
 70
     5
 75
     5
  0
VERTEX
  5
343
330
342
100
AcDbEntity
  8
一般
  6
Continuous
 62
     7
370
     5
100
AcDbVertex
100
AcDb2dVertex
 10
4008.003892649811
 20
-5901.171633410242
 30
0.0
  0
VERTEX
  5
344
330
342
100
AcDbEntity
  8
一般
  6
Continuous
 62
     7
370
     5
100
AcDbVertex
100
AcDb2dVertex
 10
4308.003892649811
 20
-5901.171633410242
 30
0.0
  0
VERTEX
  5
345
330
342
100
AcDbEntity
  8
一般
  6
Continuous
 62
     7
370
     5
100
AcDbVertex
100
AcDb2dVertex
 10
4308.003892649811
 20
-7851.171633410245
 30
0.0
  0
VERTEX
  5
346
330
342
100
AcDbEntity
  8
一般
  6
Continuous
 62
     7
370
     5
100
AcDbVertex
100
AcDb2dVertex
 10
4008.003892649811
 20
-7851.171633410245
 30
0.0
  0
SEQEND
  5
347
330
342
100
AcDbEntity
  8
一般
  6
Continuous
 62
     7
370
     5
  0
WIPEOUT
  5
348
330
1F
100
AcDbEntity
  8
一般
  6
Continuous
 62
     7
370
     5
 92
      152
310
98000000040000000C0000000E000000120000000C00000016000000000000C20C00000014000000010000006C0000000700000004000000A2D31BFF00D4B040E4CB2AF02B0DB7C00000000000000000A3D31BFF0000B240E4CB2AF02B0DB7C00000000000000000A3D31BFF0000B240E8CB2AF02BABBEC000000000000000
310
00A2D31BFF00D4B040E8CB2AF02BABBEC00000000000000000
100
AcDbWipeout
 90
        0
 10
4308.003892649811
 20
-7851.171633410245
 30
0.0
 11
1950.000000000003
 21
0.0
 31
0.0
 12
0.0
 22
1950.000000000003
 32
0.0
 13
1.0
 23
1.0
340
0
 70
     4
280
     1
281
    50
282
    50
283
     0
360
0
 71
     2
 91
        5
 14
-0.5
 24
-0.5
 14
-0.3461538461538463
 24
-0.5
 14
-0.3461538461538463
 24
0.5
 14
-0.5
 24
0.5
 14
-0.5
 24
-0.5
  0
POLYLINE
  5
349
330
1F
100
AcDbEntity
  8
一般
  6
Continuous
 62
     7
370
     5
100
AcDb2dPolyline
 66
     1
 10
0.0
 20
0.0
 30
0.0
 70
     5
 75
     5
  0
VERTEX
  5
34A
330
349
100
AcDbEntity
  8
一般
  6
Continuous
 62
     7
370
     5
100
AcDbVertex
100
AcDb2dVertex
 10
4308.003892649811
 20
-5901.171633410242
 30
0.0
  0
VERTEX
  5
34B
330
349
100
AcDbEntity
  8
一般
  6
Continuous
 62
     7
370
     5
100
AcDbVertex
100
AcDb2dVertex
 10
4608.003892649811
 20
-5901.171633410242
 30
0.0
  0
VERTEX
  5
34C
330
349
100
AcDbEntity
  8
一般
  6
Continuous
 62
     7
370
     5
100
AcDbVertex
100
AcDb2dVertex
 10
4608.003892649811
 20
-7851.171633410245
 30
0.0
  0
VERTEX
  5
34D
330
349
100
AcDbEntity
  8
一般
  6
Continuous
 62
     7
370
     5
100
AcDbVertex
100
AcDb2dVertex
 10
4308.003892649811
 20
-7851.171633410245
 30
0.0
  0
SEQEND
  5
34E
330
349
100
AcDbEntity
  8
一般
  6
Continuous
 62
     7
370
     5
  0
WIPEOUT
  5
34F
330
1F
100
AcDbEntity
  8
一般
  6
Continuous
 62
     7
370
     5
 92
      152
310
98000000040000000C0000000E000000120000000C00000016000000000000C20C00000014000000010000006C0000000700000004000000A2D31BFF0000B240E4CB2AF02B0DB7C00000000000000000A1D31BFF002CB340E4CB2AF02B0DB7C00000000000000000A1D31BFF002CB340E8CB2AF02BABBEC000000000000000
310
00A2D31BFF0000B240E8CB2AF02BABBEC00000000000000000
100
AcDbWipeout
 90
        0
 10
4608.003892649811
 20
-7851.171633410245
 30
0.0
 11
1950.000000000003
 21
0.0
 31
0.0
 12
0.0
 22
1950.000000000003
 32
0.0
 13
1.0
 23
1.0
340
0
 70
     4
280
     1
281
    50
282
    50
283
     0
360
0
 71
     2
 91
        5
 14
-0.5000000000000004
 24
-0.5
 14
-0.3461538461538471
 24
-0.5
 14
-0.3461538461538471
 24
0.5
 14
-0.5000000000000004
 24
0.5
 14
-0.5000000000000004
 24
-0.5
  0
POLYLINE
  5
350
330
1F
100
AcDbEntity
  8
一般
  6
Continuous
 62
     7
370
     5
100
AcDb2dPolyline
 66
     1
 10
0.0
 20
0.0
 30
0.0
 70
     5
 75
     5
  0
VERTEX
  5
351
330
350
100
AcDbEntity
  8
一般
  6
Continuous
 62
     7
370
     5
100
AcDbVertex
100
AcDb2dVertex
 10
4608.003892649811
 20
-5901.171633410242
 30
0.0
  0
VERTEX
  5
352
330
350
100
AcDbEntity
  8
一般
  6
Continuous
 62
     7
370
     5
100
AcDbVertex
100
AcDb2dVertex
 10
4908.003892649811
 20
-5901.171633410242
 30
0.0
  0
VERTEX
  5
353
330
350
100
AcDbEntity
  8
一般
  6
Continuous
 62
     7
370
     5
100
AcDbVertex
100
AcDb2dVertex
 10
4908.003892649811
 20
-7851.171633410245
 30
0.0
  0
VERTEX
  5
354
330
350
100
AcDbEntity
  8
一般
  6
Continuous
 62
     7
370
     5
100
AcDbVertex
100
AcDb2dVertex
 10
4608.003892649811
 20
-7851.171633410245
 30
0.0
  0
SEQEND
  5
355
330
350
100
AcDbEntity
  8
一般
  6
Continuous
 62
     7
370
     5
  0
POLYLINE
  5
356
102
{ACAD_REACTORS
330
35C
102
}
330
1F
100
AcDbEntity
  8
一般
  6
Continuous
 62
     7
370
     5
100
AcDb2dPolyline
 66
     1
 10
0.0
 20
0.0
 30
0.0
 70
     5
 75
     5
  0
VERTEX
  5
357
330
356
100
AcDbEntity
  8
一般
  6
Continuous
 62
     7
370
     5
100
AcDbVertex
100
AcDb2dVertex
 10
3408.00389264981
 20
-7851.171633410245
 30
0.0
  0
VERTEX
  5
358
330
356
100
AcDbEntity
  8
一般
  6
Continuous
 62
     7
370
     5
100
AcDbVertex
100
AcDb2dVertex
 10
4908.003892649811
 20
-7851.171633410245
 30
0.0
  0
VERTEX
  5
359
330
356
100
AcDbEntity
  8
一般
  6
Continuous
 62
     7
370
     5
100
AcDbVertex
100
AcDb2dVertex
 10
4908.003892649811
 20
-7876.171633410241
 30
0.0
  0
VERTEX
  5
35A
330
356
100
AcDbEntity
  8
一般
  6
Continuous
 62
     7
370
     5
100
AcDbVertex
100
AcDb2dVertex
 10
3408.00389264981
 20
-7876.171633410241
 30
0.0
  0
SEQEND
  5
35B
330
356
100
AcDbEntity
  8
一般
  6
Continuous
 62
     7
370
     5
  0
HATCH
  5
35C
330
1F
100
AcDbEntity
  8
一般
  6
Continuous
 62
   254
370
     0
100
AcDbHatch
 10
0.0
 20
0.0
 30
0.0
210
0.0
220
0.0
230
1.0
  2
SOLID
 70
     1
 71
     1
 91
        1
 92
        1
 93
        4
 72
     1
 10
3408.00389264981
 20
-7851.171633410245
 11
4908.003892649811
 21
-7851.171633410245
 72
     1
 10
4908.003892649811
 20
-7851.171633410245
 11
4908.003892649811
 21
-7876.171633410241
 72
     1
 10
4908.003892649811
 20
-7876.171633410241
 11
3408.00389264981
 21
-7876.171633410241
 72
     1
 10
3408.00389264981
 20
-7876.171633410241
 11
3408.00389264981
 21
-7851.171633410245
 97
        1
330
356
 75
     0
 76
     1
 98
        1
 10
0.0
 20
0.0
  0
POLYLINE
  5
35D
102
{ACAD_REACTORS
330
363
102
}
330
1F
100
AcDbEntity
  8
一般
  6
Continuous
 62
     7
370
     5
100
AcDb2dPolyline
 66
     1
 10
0.0
 20
0.0
 30
0.0
 70
     5
 75
     5
  0
VERTEX
  5
35E
330
35D
100
AcDbEntity
  8
一般
  6
Continuous
 62
     7
370
     5
100
AcDbVertex
100
AcDb2dVertex
 10
3690.00389264981
 20
-5901.171633410242
 30
0.0
  0
VERTEX
  5
35F
330
35D
100
AcDbEntity
  8
一般
  6
Continuous
 62
     7
370
     5
100
AcDbVertex
100
AcDb2dVertex
 10
3708.00389264981
 20
-5901.171633410242
 30
0.0
  0
VERTEX
  5
360
330
35D
100
AcDbEntity
  8
一般
  6
Continuous
 62
     7
370
     5
100
AcDbVertex
100
AcDb2dVertex
 10
3708.00389264981
 20
-7851.171633410245
 30
0.0
  0
VERTEX
  5
361
330
35D
100
AcDbEntity
  8
一般
  6
Continuous
 62
     7
370
     5
100
AcDbVertex
100
AcDb2dVertex
 10
3690.00389264981
 20
-7851.171633410245
 30
0.0
  0
SEQEND
  5
362
330
35D
100
AcDbEntity
  8
一般
  6
Continuous
 62
     7
370
     5
  0
HATCH
  5
363
330
1F
100
AcDbEntity
  8
一般
  6
Continuous
 62
   253
370
     0
100
AcDbHatch
 10
0.0
 20
0.0
 30
0.0
210
0.0
220
0.0
230
1.0
  2
SOLID
 70
     1
 71
     1
 91
        1
 92
        1
 93
        4
 72
     1
 10
3690.00389264981
 20
-5901.171633410242
 11
3708.00389264981
 21
-5901.171633410242
 72
     1
 10
3708.00389264981
 20
-5901.171633410242
 11
3708.00389264981
 21
-7851.171633410245
 72
     1
 10
3708.00389264981
 20
-7851.171633410245
 11
3690.00389264981
 21
-7851.171633410245
 72
     1
 10
3690.00389264981
 20
-7851.171633410245
 11
3690.00389264981
 21
-5901.171633410242
 97
        1
330
35D
 75
     0
 76
     1
 98
        1
 10
0.0
 20
0.0
  0
POLYLINE
  5
364
102
{ACAD_REACTORS
330
36A
102
}
330
1F
100
AcDbEntity
  8
一般
  6
Continuous
 62
     7
370
     5
100
AcDb2dPolyline
 66
     1
 10
0.0
 20
0.0
 30
0.0
 70
     5
 75
     5
  0
VERTEX
  5
365
330
364
100
AcDbEntity
  8
一般
  6
Continuous
 62
     7
370
     5
100
AcDbVertex
100
AcDb2dVertex
 10
3990.003892649811
 20
-5901.171633410242
 30
0.0
  0
VERTEX
  5
366
330
364
100
AcDbEntity
  8
一般
  6
Continuous
 62
     7
370
     5
100
AcDbVertex
100
AcDb2dVertex
 10
4008.003892649811
 20
-5901.171633410242
 30
0.0
  0
VERTEX
  5
367
330
364
100
AcDbEntity
  8
一般
  6
Continuous
 62
     7
370
     5
100
AcDbVertex
100
AcDb2dVertex
 10
4008.003892649811
 20
-7851.171633410245
 30
0.0
  0
VERTEX
  5
368
330
364
100
AcDbEntity
  8
一般
  6
Continuous
 62
     7
370
     5
100
AcDbVertex
100
AcDb2dVertex
 10
3990.003892649811
 20
-7851.171633410245
 30
0.0
  0
SEQEND
  5
369
330
364
100
AcDbEntity
  8
一般
  6
Continuous
 62
     7
370
     5
  0
HATCH
  5
36A
330
1F
100
AcDbEntity
  8
一般
  6
Continuous
 62
   253
370
     0
100
AcDbHatch
 10
0.0
 20
0.0
 30
0.0
210
0.0
220
0.0
230
1.0
  2
SOLID
 70
     1
 71
     1
 91
        1
 92
        1
 93
        4
 72
     1
 10
3990.003892649811
 20
-5901.171633410242
 11
4008.003892649811
 21
-5901.171633410242
 72
     1
 10
4008.003892649811
 20
-5901.171633410242
 11
4008.003892649811
 21
-7851.171633410245
 72
     1
 10
4008.003892649811
 20
-7851.171633410245
 11
3990.003892649811
 21
-7851.171633410245
 72
     1
 10
3990.003892649811
 20
-7851.171633410245
 11
3990.003892649811
 21
-5901.171633410242
 97
        1
330
364
 75
     0
 76
     1
 98
        1
 10
0.0
 20
0.0
  0
POLYLINE
  5
36B
102
{ACAD_REACTORS
330
371
102
}
330
1F
100
AcDbEntity
  8
一般
  6
Continuous
 62
     7
370
     5
100
AcDb2dPolyline
 66
     1
 10
0.0
 20
0.0
 30
0.0
 70
     5
 75
     5
  0
VERTEX
  5
36C
330
36B
100
AcDbEntity
  8
一般
  6
Continuous
 62
     7
370
     5
100
AcDbVertex
100
AcDb2dVertex
 10
4290.003892649811
 20
-5901.171633410242
 30
0.0
  0
VERTEX
  5
36D
330
36B
100
AcDbEntity
  8
一般
  6
Continuous
 62
     7
370
     5
100
AcDbVertex
100
AcDb2dVertex
 10
4308.003892649811
 20
-5901.171633410242
 30
0.0
  0
VERTEX
  5
36E
330
36B
100
AcDbEntity
  8
一般
  6
Continuous
 62
     7
370
     5
100
AcDbVertex
100
AcDb2dVertex
 10
4308.003892649811
 20
-7851.171633410245
 30
0.0
  0
VERTEX
  5
36F
330
36B
100
AcDbEntity
  8
一般
  6
Continuous
 62
     7
370
     5
100
AcDbVertex
100
AcDb2dVertex
 10
4290.003892649811
 20
-7851.171633410245
 30
0.0
  0
SEQEND
  5
370
330
36B
100
AcDbEntity
  8
一般
  6
Continuous
 62
     7
370
     5
  0
HATCH
  5
371
330
1F
100
AcDbEntity
  8
一般
  6
Continuous
 62
   253
370
     0
100
AcDbHatch
 10
0.0
 20
0.0
 30
0.0
210
0.0
220
0.0
230
1.0
  2
SOLID
 70
     1
 71
     1
 91
        1
 92
        1
 93
        4
 72
     1
 10
4290.003892649811
 20
-5901.171633410242
 11
4308.003892649811
 21
-5901.171633410242
 72
     1
 10
4308.003892649811
 20
-5901.171633410242
 11
4308.003892649811
 21
-7851.171633410245
 72
     1
 10
4308.003892649811
 20
-7851.171633410245
 11
4290.003892649811
 21
-7851.171633410245
 72
     1
 10
4290.003892649811
 20
-7851.171633410245
 11
4290.003892649811
 21
-5901.171633410242
 97
        1
330
36B
 75
     0
 76
     1
 98
        1
 10
0.0
 20
0.0
  0
POLYLINE
  5
372
102
{ACAD_REACTORS
330
378
102
}
330
1F
100
AcDbEntity
  8
一般
  6
Continuous
 62
     7
370
     5
100
AcDb2dPolyline
 66
     1
 10
0.0
 20
0.0
 30
0.0
 70
     5
 75
     5
  0
VERTEX
  5
373
330
372
100
AcDbEntity
  8
一般
  6
Continuous
 62
     7
370
     5
100
AcDbVertex
100
AcDb2dVertex
 10
4590.003892649811
 20
-5901.171633410242
 30
0.0
  0
VERTEX
  5
374
330
372
100
AcDbEntity
  8
一般
  6
Continuous
 62
     7
370
     5
100
AcDbVertex
100
AcDb2dVertex
 10
4608.003892649811
 20
-5901.171633410242
 30
0.0
  0
VERTEX
  5
375
330
372
100
AcDbEntity
  8
一般
  6
Continuous
 62
     7
370
     5
100
AcDbVertex
100
AcDb2dVertex
 10
4608.003892649811
 20
-7851.171633410245
 30
0.0
  0
VERTEX
  5
376
330
372
100
AcDbEntity
  8
一般
  6
Continuous
 62
     7
370
     5
100
AcDbVertex
100
AcDb2dVertex
 10
4590.003892649811
 20
-7851.171633410245
 30
0.0
  0
SEQEND
  5
377
330
372
100
AcDbEntity
  8
一般
  6
Continuous
 62
     7
370
     5
  0
HATCH
  5
378
330
1F
100
AcDbEntity
  8
一般
  6
Continuous
 62
   253
370
     0
100
AcDbHatch
 10
0.0
 20
0.0
 30
0.0
210
0.0
220
0.0
230
1.0
  2
SOLID
 70
     1
 71
     1
 91
        1
 92
        1
 93
        4
 72
     1
 10
4590.003892649811
 20
-5901.171633410242
 11
4608.003892649811
 21
-5901.171633410242
 72
     1
 10
4608.003892649811
 20
-5901.171633410242
 11
4608.003892649811
 21
-7851.171633410245
 72
     1
 10
4608.003892649811
 20
-7851.171633410245
 11
4590.003892649811
 21
-7851.171633410245
 72
     1
 10
4590.003892649811
 20
-7851.171633410245
 11
4590.003892649811
 21
-5901.171633410242
 97
        1
330
372
 75
     0
 76
     1
 98
        1
 10
0.0
 20
0.0
  0
POLYLINE
  5
379
102
{ACAD_REACTORS
330
37F
102
}
330
1F
100
AcDbEntity
  8
一般
  6
Continuous
 62
     7
370
     5
100
AcDb2dPolyline
 66
     1
 10
0.0
 20
0.0
 30
0.0
 70
     5
 75
     5
  0
VERTEX
  5
37A
330
379
100
AcDbEntity
  8
一般
  6
Continuous
 62
     7
370
     5
100
AcDbVertex
100
AcDb2dVertex
 10
4890.003892649811
 20
-5901.171633410242
 30
0.0
  0
VERTEX
  5
37B
330
379
100
AcDbEntity
  8
一般
  6
Continuous
 62
     7
370
     5
100
AcDbVertex
100
AcDb2dVertex
 10
4908.003892649811
 20
-5901.171633410242
 30
0.0
  0
VERTEX
  5
37C
330
379
100
AcDbEntity
  8
一般
  6
Continuous
 62
     7
370
     5
100
AcDbVertex
100
AcDb2dVertex
 10
4908.003892649811
 20
-7851.171633410245
 30
0.0
  0
VERTEX
  5
37D
330
379
100
AcDbEntity
  8
一般
  6
Continuous
 62
     7
370
     5
100
AcDbVertex
100
AcDb2dVertex
 10
4890.003892649811
 20
-7851.171633410245
 30
0.0
  0
SEQEND
  5
37E
330
379
100
AcDbEntity
  8
一般
  6
Continuous
 62
     7
370
     5
  0
HATCH
  5
37F
330
1F
100
AcDbEntity
  8
一般
  6
Continuous
 62
   253
370
     0
100
AcDbHatch
 10
0.0
 20
0.0
 30
0.0
210
0.0
220
0.0
230
1.0
  2
SOLID
 70
     1
 71
     1
 91
        1
 92
        1
 93
        4
 72
     1
 10
4890.003892649811
 20
-5901.171633410242
 11
4908.003892649811
 21
-5901.171633410242
 72
     1
 10
4908.003892649811
 20
-5901.171633410242
 11
4908.003892649811
 21
-7851.171633410245
 72
     1
 10
4908.003892649811
 20
-7851.171633410245
 11
4890.003892649811
 21
-7851.171633410245
 72
     1
 10
4890.003892649811
 20
-7851.171633410245
 11
4890.003892649811
 21
-5901.171633410242
 97
        1
330
379
 75
     0
 76
     1
 98
        1
 10
0.0
 20
0.0
  0
LINE
  5
380
330
1F
100
AcDbEntity
  8
一般
  6
Continuous
 62
     7
370
     5
100
AcDbLine
 10
4890.003892649811
 20
-6876.171633410243
 30
0.0
 11
3408.00389264981
 21
-6876.171633410243
 31
0.0
  0
POLYLINE
  5
381
102
{ACAD_REACTORS
330
386
102
}
330
1F
100
AcDbEntity
  8
一般
  6
Continuous
 62
     7
370
     5
100
AcDb2dPolyline
 66
     1
 10
0.0
 20
0.0
 30
0.0
 70
     5
 75
     5
  0
VERTEX
  5
382
330
381
100
AcDbEntity
  8
一般
  6
Continuous
 62
     7
370
     5
100
AcDbVertex
100
AcDb2dVertex
 10
3725.50389264981
 20
-6961.245502007125
 30
0.0
  0
VERTEX
  5
383
330
381
100
AcDbEntity
  8
一般
  6
Continuous
 62
     7
370
     5
100
AcDbVertex
100
AcDb2dVertex
 10
3408.00389264981
 20
-6876.171633410243
 30
0.0
  0
VERTEX
  5
384
330
381
100
AcDbEntity
  8
一般
  6
Continuous
 62
     7
370
     5
100
AcDbVertex
100
AcDb2dVertex
 10
3725.50389264981
 20
-6791.097764813361
 30
0.0
  0
SEQEND
  5
385
330
381
100
AcDbEntity
  8
一般
  6
Continuous
 62
     7
370
     5
  0
HATCH
  5
386
330
1F
100
AcDbEntity
  8
一般
  6
Continuous
 62
     7
370
     0
100
AcDbHatch
 10
0.0
 20
0.0
 30
0.0
210
0.0
220
0.0
230
1.0
  2
SOLID
 70
     1
 71
     1
 91
        1
 92
        1
 93
        3
 72
     1
 10
3725.50389264981
 20
-6961.245502007125
 11
3408.00389264981
 21
-6876.171633410243
 72
     1
 10
3408.00389264981
 20
-6876.171633410243
 11
3725.50389264981
 21
-6791.097764813361
 72
     1
 10
3725.50389264981
 20
-6791.097764813361
 11
3725.50389264981
 21
-6961.245502007125
 97
        1
330
381
 75
     0
 76
     1
 98
        1
 10
0.0
 20
0.0
  0
POLYLINE
  5
387
102
{ACAD_REACTORS
330
38D
102
}
330
1F
100
AcDbEntity
  8
一般
  6
Continuous
 62
     7
370
     5
100
AcDb2dPolyline
 66
     1
 10
0.0
 20
0.0
 30
0.0
 70
     5
 75
     5
  0
VERTEX
  5
388
330
387
100
AcDbEntity
  8
一般
  6
Continuous
 62
     7
370
     5
100
AcDbVertex
100
AcDb2dVertex
 10
-3641.996107350192
 20
-12090.43198642383
 30
0.0
  0
VERTEX
  5
389
330
387
100
AcDbEntity
  8
一般
  6
Continuous
 62
     7
370
     5
100
AcDbVertex
100
AcDb2dVertex
 10
-2791.996107350192
 20
-12090.43198642383
 30
0.0
  0
VERTEX
  5
38A
330
387
100
AcDbEntity
  8
一般
  6
Continuous
 62
     7
370
     5
100
AcDbVertex
100
AcDb2dVertex
 10
-2791.996107350192
 20
-12140.43198642383
 30
0.0
  0
VERTEX
  5
38B
330
387
100
AcDbEntity
  8
一般
  6
Continuous
 62
     7
370
     5
100
AcDbVertex
100
AcDb2dVertex
 10
-3641.996107350192
 20
-12140.43198642383
 30
0.0
  0
SEQEND
  5
38C
330
387
100
AcDbEntity
  8
一般
  6
Continuous
 62
     7
370
     5
  0
HATCH
  5
38D
330
1F
100
AcDbEntity
  8
一般
  6
Continuous
 62
   253
370
     0
100
AcDbHatch
 10
0.0
 20
0.0
 30
0.0
210
0.0
220
0.0
230
1.0
  2
SOLID
 70
     1
 71
     1
 91
        1
 92
        1
 93
        4
 72
     1
 10
-3641.996107350192
 20
-12090.43198642383
 11
-2791.996107350192
 21
-12090.43198642383
 72
     1
 10
-2791.996107350192
 20
-12090.43198642383
 11
-2791.996107350192
 21
-12140.43198642383
 72
     1
 10
-2791.996107350192
 20
-12140.43198642383
 11
-3641.996107350192
 21
-12140.43198642383
 72
     1
 10
-3641.996107350192
 20
-12140.43198642383
 11
-3641.996107350192
 21
-12090.43198642383
 97
        1
330
387
 75
     0
 76
     1
 98
        1
 10
0.0
 20
0.0
  0
ARC
  5
38E
330
1F
100
AcDbEntity
  8
一般
  6
Continuous
 62
     7
370
     5
100
AcDbCircle
 10
-3641.996107350192
 20
-12096.17163341024
 30
0.0
 40
850.0
100
AcDbArc
 50
0.0
 51
155.308441836522
  0
WIPEOUT
  5
38F
330
1F
100
AcDbEntity
  8
一般
  6
Continuous
 62
   254
370
     5
 92
      152
310
98000000040000000C0000000E000000120000000C00000016000000000000C20C00000014000000010000006C0000000700000004000000BE58C801FE73ACC057C5544B379DC7C0000000000000000079FF9DAF013CB1C00F30C6293AE9C6C000000000000000007F84D8D8D426B1C015E6ED6F94D2C6C000000000000000
310
00CE623D54A449ACC05D7B7C919186C7C00000000000000000
100
AcDbWipeout
 90
        0
 10
-4412.006585955497
 20
-12090.43198642383
 30
0.0
 11
791.1856307569124
 21
0.0
 31
0.0
 12
0.0
 22
791.1856307569124
 32
0.0
 13
1.0
 23
1.0
340
0
 70
     4
280
     1
281
    50
282
    50
283
     0
360
0
 71
     2
 91
        5
 14
0.4732361770380642
 24
0.5000000000000018
 14
-0.5
 24
0.0450150096470701
 14
-0.4732361770380624
 24
-0.0122341772375236
 14
0.5
 24
0.4427508131154081
 14
0.4732361770380642
 24
0.5000000000000018
  0
POLYLINE
  5
390
330
1F
100
AcDbEntity
  8
一般
  6
Continuous
 62
   254
370
     5
100
AcDb2dPolyline
 66
     1
 10
0.0
 20
0.0
 30
0.0
 70
     5
 75
     5
  0
VERTEX
  5
391
330
390
100
AcDbEntity
  8
一般
  6
Continuous
 62
   254
370
     5
100
AcDbVertex
100
AcDb2dVertex
 10
-3641.99610735019
 20
-12090.43198642383
 30
0.0
  0
VERTEX
  5
392
330
390
100
AcDbEntity
  8
一般
  6
Continuous
 62
   254
370
     5
100
AcDbVertex
100
AcDb2dVertex
 10
-4412.006585955497
 20
-11730.45439984652
 30
0.0
  0
VERTEX
  5
393
330
390
100
AcDbEntity
  8
一般
  6
Continuous
 62
   254
370
     5
100
AcDbVertex
100
AcDb2dVertex
 10
-4390.83143380389
 20
-11685.15966581091
 30
0.0
  0
VERTEX
  5
394
330
390
100
AcDbEntity
  8
一般
  6
Continuous
 62
   254
370
     5
100
AcDbVertex
100
AcDb2dVertex
 10
-3620.820955198585
 20
-12045.13725238823
 30
0.0
  0
SEQEND
  5
395
330
390
100
AcDbEntity
  8
一般
  6
Continuous
 62
   254
370
     5
  0
ARC
  5
396
330
1F
100
AcDbEntity
  8
一般
  6
Continuous
 62
   253
370
     5
100
AcDbCircle
 10
-7241.996107350191
 20
-10000.30847290535
 30
0.0
 40
1200.000000000002
100
AcDbArc
 50
90.0
 51
255.3699536248465
  0
POLYLINE
  5
397
102
{ACAD_REACTORS
330
39D
102
}
330
1F
100
AcDbEntity
  8
一般
  6
Continuous
 62
   253
370
     5
100
AcDb2dPolyline
 66
     1
 10
0.0
 20
0.0
 30
0.0
 70
     5
 75
     5
  0
VERTEX
  5
398
330
397
100
AcDbEntity
  8
一般
  6
Continuous
 62
   253
370
     5
100
AcDbVertex
100
AcDb2dVertex
 10
-7541.626240426282
 20
-11162.29891320715
 30
0.0
  0
VERTEX
  5
399
330
397
100
AcDbEntity
  8
一般
  6
Continuous
 62
   253
370
     5
100
AcDbVertex
100
AcDb2dVertex
 10
-7619.092269779736
 20
-11142.32357100208
 30
0.0
  0
VERTEX
  5
39A
330
397
100
AcDbEntity
  8
一般
  6
Continuous
 62
   253
370
     5
100
AcDbVertex
100
AcDb2dVertex
 10
-7319.462136703645
 20
-9980.333130700277
 30
0.0
  0
VERTEX
  5
39B
330
397
100
AcDbEntity
  8
一般
  6
Continuous
 62
   253
370
     5
100
AcDbVertex
100
AcDb2dVertex
 10
-7241.996107350191
 20
-10000.30847290535
 30
0.0
  0
SEQEND
  5
39C
330
397
100
AcDbEntity
  8
一般
  6
Continuous
 62
   253
370
     5
  0
HATCH
  5
39D
330
1F
100
AcDbEntity
  8
一般
  6
Continuous
 62
   254
370
     0
100
AcDbHatch
 10
0.0
 20
0.0
 30
0.0
210
0.0
220
0.0
230
1.0
  2
SOLID
 70
     1
 71
     1
 91
        1
 92
        1
 93
        4
 72
     1
 10
-7541.626240426282
 20
-11162.29891320715
 11
-7619.092269779736
 21
-11142.32357100208
 72
     1
 10
-7619.092269779736
 20
-11142.32357100208
 11
-7319.462136703645
 21
-9980.333130700277
 72
     1
 10
-7319.462136703645
 20
-9980.333130700277
 11
-7241.996107350191
 21
-10000.30847290535
 72
     1
 10
-7241.996107350191
 20
-10000.30847290535
 11
-7541.626240426282
 21
-11162.29891320715
 97
        1
330
397
 75
     0
 76
     1
 98
        1
 10
0.0
 20
0.0
  0
POLYLINE
  5
39E
102
{ACAD_REACTORS
330
3A4
102
}
330
1F
100
AcDbEntity
  8
一般
  6
Continuous
 62
     7
370
     5
100
AcDb2dPolyline
 66
     1
 10
0.0
 20
0.0
 30
0.0
 70
     5
 75
     5
  0
VERTEX
  5
39F
330
39E
100
AcDbEntity
  8
一般
  6
Continuous
 62
     7
370
     5
100
AcDbVertex
100
AcDb2dVertex
 10
-7241.996107350191
 20
-6601.171633410243
 30
0.0
  0
VERTEX
  5
3A0
330
39E
100
AcDbEntity
  8
一般
  6
Continuous
 62
     7
370
     5
100
AcDbVertex
100
AcDb2dVertex
 10
-7161.996107350191
 20
-6601.171633410243
 30
0.0
  0
VERTEX
  5
3A1
330
39E
100
AcDbEntity
  8
一般
  6
Continuous
 62
     7
370
     5
100
AcDbVertex
100
AcDb2dVertex
 10
-7161.996107350191
 20
-8800.30847290535
 30
0.0
  0
VERTEX
  5
3A2
330
39E
100
AcDbEntity
  8
一般
  6
Continuous
 62
     7
370
     5
100
AcDbVertex
100
AcDb2dVertex
 10
-7241.996107350191
 20
-8800.30847290535
 30
0.0
  0
SEQEND
  5
3A3
330
39E
100
AcDbEntity
  8
一般
  6
Continuous
 62
     7
370
     5
  0
HATCH
  5
3A4
330
1F
100
AcDbEntity
  8
一般
  6
Continuous
 62
   253
370
     0
100
AcDbHatch
 10
0.0
 20
0.0
 30
0.0
210
0.0
220
0.0
230
1.0
  2
SOLID
 70
     1
 71
     1
 91
        1
 92
        1
 93
        4
 72
     1
 10
-7241.996107350191
 20
-6601.171633410243
 11
-7161.996107350191
 21
-6601.171633410243
 72
     1
 10
-7161.996107350191
 20
-6601.171633410243
 11
-7161.996107350191
 21
-8800.30847290535
 72
     1
 10
-7161.996107350191
 20
-8800.30847290535
 11
-7241.996107350191
 21
-8800.30847290535
 72
     1
 10
-7241.996107350191
 20
-8800.30847290535
 11
-7241.996107350191
 21
-6601.171633410243
 97
        1
330
39E
 75
     0
 76
     1
 98
        1
 10
0.0
 20
0.0
  0
ARC
  5
3A5
330
1F
100
AcDbEntity
  8
一般
  6
Continuous
 62
   253
370
     5
100
AcDbCircle
 10
-7241.996107350191
 20
-6601.171633410243
 30
0.0
 40
2199.136839495108
100
AcDbArc
 50
103.1287415894055
 51
270.0
  0
POLYLINE
  5
3A6
102
{ACAD_REACTORS
330
3AC
102
}
330
1F
100
AcDbEntity
  8
一般
  6
Continuous
 62
   253
370
     5
100
AcDb2dPolyline
 66
     1
 10
0.0
 20
0.0
 30
0.0
 70
     5
 75
     5
  0
VERTEX
  5
3A7
330
3A6
100
AcDbEntity
  8
一般
  6
Continuous
 62
   253
370
     5
100
AcDbVertex
100
AcDb2dVertex
 10
-7241.996107350193
 20
-6601.171633410243
 30
0.0
  0
VERTEX
  5
3A8
330
3A6
100
AcDbEntity
  8
一般
  6
Continuous
 62
   253
370
     5
100
AcDbVertex
100
AcDb2dVertex
 10
-7319.905079224372
 20
-6619.34282218556
 30
0.0
  0
VERTEX
  5
3A9
330
3A6
100
AcDbEntity
  8
一般
  6
Continuous
 62
   253
370
     5
100
AcDbVertex
100
AcDb2dVertex
 10
-7819.41671238967
 20
-4477.686694989349
 30
0.0
  0
VERTEX
  5
3AA
330
3A6
100
AcDbEntity
  8
一般
  6
Continuous
 62
   253
370
     5
100
AcDbVertex
100
AcDb2dVertex
 10
-7741.507740515488
 20
-4459.515506214032
 30
0.0
  0
SEQEND
  5
3AB
330
3A6
100
AcDbEntity
  8
一般
  6
Continuous
 62
   253
370
     5
  0
HATCH
  5
3AC
330
1F
100
AcDbEntity
  8
一般
  6
Continuous
 62
   254
370
     0
100
AcDbHatch
 10
0.0
 20
0.0
 30
0.0
210
0.0
220
0.0
230
1.0
  2
SOLID
 70
     1
 71
     1
 91
        1
 92
        1
 93
        4
 72
     1
 10
-7241.996107350193
 20
-6601.171633410243
 11
-7319.905079224372
 21
-6619.34282218556
 72
     1
 10
-7319.905079224372
 20
-6619.34282218556
 11
-7819.41671238967
 21
-4477.686694989349
 72
     1
 10
-7819.41671238967
 20
-4477.686694989349
 11
-7741.507740515488
 21
-4459.515506214032
 72
     1
 10
-7741.507740515488
 20
-4459.515506214032
 11
-7241.996107350193
 21
-6601.171633410243
 97
        1
330
3A6
 75
     0
 76
     1
 98
        1
 10
0.0
 20
0.0
  0
POLYLINE
  5
3AD
102
{ACAD_REACTORS
330
3B3
102
}
330
1F
100
AcDbEntity
  8
一般
  6
Continuous
 62
     7
370
     5
100
AcDb2dPolyline
 66
     1
 10
0.0
 20
0.0
 30
0.0
 70
     5
 75
     5
  0
VERTEX
  5
3AE
330
3AD
100
AcDbEntity
  8
一般
  6
Continuous
 62
     7
370
     5
100
AcDbVertex
100
AcDb2dVertex
 10
-6621.996107350191
 20
-8800.30847290535
 30
0.0
  0
VERTEX
  5
3AF
330
3AD
100
AcDbEntity
  8
一般
  6
Continuous
 62
     7
370
     5
100
AcDbVertex
100
AcDb2dVertex
 10
-6541.996107350191
 20
-8800.30847290535
 30
0.0
  0
VERTEX
  5
3B0
330
3AD
100
AcDbEntity
  8
一般
  6
Continuous
 62
     7
370
     5
100
AcDbVertex
100
AcDb2dVertex
 10
-6541.996107350191
 20
-10000.30847290535
 30
0.0
  0
VERTEX
  5
3B1
330
3AD
100
AcDbEntity
  8
一般
  6
Continuous
 62
     7
370
     5
100
AcDbVertex
100
AcDb2dVertex
 10
-6621.996107350191
 20
-10000.30847290535
 30
0.0
  0
SEQEND
  5
3B2
330
3AD
100
AcDbEntity
  8
一般
  6
Continuous
 62
     7
370
     5
  0
HATCH
  5
3B3
330
1F
100
AcDbEntity
  8
一般
  6
Continuous
 62
   253
370
     0
100
AcDbHatch
 10
0.0
 20
0.0
 30
0.0
210
0.0
220
0.0
230
1.0
  2
SOLID
 70
     1
 71
     1
 91
        1
 92
        1
 93
        4
 72
     1
 10
-6621.996107350191
 20
-8800.30847290535
 11
-6541.996107350191
 21
-8800.30847290535
 72
     1
 10
-6541.996107350191
 20
-8800.30847290535
 11
-6541.996107350191
 21
-10000.30847290535
 72
     1
 10
-6541.996107350191
 20
-10000.30847290535
 11
-6621.996107350191
 21
-10000.30847290535
 72
     1
 10
-6621.996107350191
 20
-10000.30847290535
 11
-6621.996107350191
 21
-8800.30847290535
 97
        1
330
3AD
 75
     0
 76
     1
 98
        1
 10
0.0
 20
0.0
  0
POLYLINE
  5
3B4
102
{ACAD_REACTORS
330
3BA
102
}
330
1F
100
AcDbEntity
  8
一般
  6
Continuous
 62
     7
370
     5
100
AcDb2dPolyline
 66
     1
 10
0.0
 20
0.0
 30
0.0
 70
     5
 75
     5
  0
VERTEX
  5
3B5
330
3B4
100
AcDbEntity
  8
一般
  6
Continuous
 62
     7
370
     5
100
AcDbVertex
100
AcDb2dVertex
 10
-6621.996107350191
 20
-6601.171633410243
 30
0.0
  0
VERTEX
  5
3B6
330
3B4
100
AcDbEntity
  8
一般
  6
Continuous
 62
     7
370
     5
100
AcDbVertex
100
AcDb2dVertex
 10
-6541.996107350191
 20
-6601.171633410243
 30
0.0
  0
VERTEX
  5
3B7
330
3B4
100
AcDbEntity
  8
一般
  6
Continuous
 62
     7
370
     5
100
AcDbVertex
100
AcDb2dVertex
 10
-6541.996107350191
 20
-8800.30847290535
 30
0.0
  0
VERTEX
  5
3B8
330
3B4
100
AcDbEntity
  8
一般
  6
Continuous
 62
     7
370
     5
100
AcDbVertex
100
AcDb2dVertex
 10
-6621.996107350191
 20
-8800.30847290535
 30
0.0
  0
SEQEND
  5
3B9
330
3B4
100
AcDbEntity
  8
一般
  6
Continuous
 62
     7
370
     5
  0
HATCH
  5
3BA
330
1F
100
AcDbEntity
  8
一般
  6
Continuous
 62
   253
370
     0
100
AcDbHatch
 10
0.0
 20
0.0
 30
0.0
210
0.0
220
0.0
230
1.0
  2
SOLID
 70
     1
 71
     1
 91
        1
 92
        1
 93
        4
 72
     1
 10
-6621.996107350191
 20
-6601.171633410243
 11
-6541.996107350191
 21
-6601.171633410243
 72
     1
 10
-6541.996107350191
 20
-6601.171633410243
 11
-6541.996107350191
 21
-8800.30847290535
 72
     1
 10
-6541.996107350191
 20
-8800.30847290535
 11
-6621.996107350191
 21
-8800.30847290535
 72
     1
 10
-6621.996107350191
 20
-8800.30847290535
 11
-6621.996107350191
 21
-6601.171633410243
 97
        1
330
3B4
 75
     0
 76
     1
 98
        1
 10
0.0
 20
0.0
  0
ARC
  5
3BB
330
1F
100
AcDbEntity
  8
一般
  6
Continuous
 62
   253
370
     5
100
AcDbCircle
 10
-6541.996107350191
 20
-10000.30847290535
 30
0.0
 40
1199.999999999992
100
AcDbArc
 50
284.6300463751535
 51
90.0
  0
ARC
  5
3BC
330
1F
100
AcDbEntity
  8
一般
  6
Continuous
 62
   253
370
     5
100
AcDbCircle
 10
-6541.996107350191
 20
-6601.171633410243
 30
0.0
 40
2199.136839495107
100
AcDbArc
 50
270.0
 51
9.553832985270901
  0
POLYLINE
  5
3BD
102
{ACAD_REACTORS
330
3C3
102
}
330
1F
100
AcDbEntity
  8
一般
  6
Continuous
 62
   253
370
     5
100
AcDb2dPolyline
 66
     1
 10
0.0
 20
0.0
 30
0.0
 70
     5
 75
     5
  0
VERTEX
  5
3BE
330
3BD
100
AcDbEntity
  8
一般
  6
Continuous
 62
   253
370
     5
100
AcDbVertex
100
AcDb2dVertex
 10
-6242.3659742741
 20
-11162.29891320715
 30
0.0
  0
VERTEX
  5
3BF
330
3BD
100
AcDbEntity
  8
一般
  6
Continuous
 62
   253
370
     5
100
AcDbVertex
100
AcDb2dVertex
 10
-6164.899944920646
 20
-11142.32357100208
 30
0.0
  0
VERTEX
  5
3C0
330
3BD
100
AcDbEntity
  8
一般
  6
Continuous
 62
   253
370
     5
100
AcDbVertex
100
AcDb2dVertex
 10
-6464.530077996737
 20
-9980.333130700277
 30
0.0
  0
VERTEX
  5
3C1
330
3BD
100
AcDbEntity
  8
一般
  6
Continuous
 62
   253
370
     5
100
AcDbVertex
100
AcDb2dVertex
 10
-6541.996107350191
 20
-10000.30847290535
 30
0.0
  0
SEQEND
  5
3C2
330
3BD
100
AcDbEntity
  8
一般
  6
Continuous
 62
   253
370
     5
  0
HATCH
  5
3C3
330
1F
100
AcDbEntity
  8
一般
  6
Continuous
 62
   254
370
     0
100
AcDbHatch
 10
0.0
 20
0.0
 30
0.0
210
0.0
220
0.0
230
1.0
  2
SOLID
 70
     1
 71
     1
 91
        1
 92
        1
 93
        4
 72
     1
 10
-6242.3659742741
 20
-11162.29891320715
 11
-6164.899944920646
 21
-11142.32357100208
 72
     1
 10
-6164.899944920646
 20
-11142.32357100208
 11
-6464.530077996737
 21
-9980.333130700277
 72
     1
 10
-6464.530077996737
 20
-9980.333130700277
 11
-6541.996107350191
 21
-10000.30847290535
 72
     1
 10
-6541.996107350191
 20
-10000.30847290535
 11
-6242.3659742741
 21
-11162.29891320715
 97
        1
330
3BD
 75
     0
 76
     1
 98
        1
 10
0.0
 20
0.0
  0
POLYLINE
  5
3C4
102
{ACAD_REACTORS
330
3CA
102
}
330
1F
100
AcDbEntity
  8
一般
  6
Continuous
 62
   253
370
     5
100
AcDb2dPolyline
 66
     1
 10
0.0
 20
0.0
 30
0.0
 70
     5
 75
     5
  0
VERTEX
  5
3C5
330
3C4
100
AcDbEntity
  8
一般
  6
Continuous
 62
   253
370
     5
100
AcDbVertex
100
AcDb2dVertex
 10
-6541.996107350189
 20
-6601.171633410243
 30
0.0
  0
VERTEX
  5
3C6
330
3C4
100
AcDbEntity
  8
一般
  6
Continuous
 62
   253
370
     5
100
AcDbVertex
100
AcDb2dVertex
 10
-6524.469529423441
 20
-6679.228145413904
 30
0.0
  0
VERTEX
  5
3C7
330
3C4
100
AcDbEntity
  8
一般
  6
Continuous
 62
   253
370
     5
100
AcDbVertex
100
AcDb2dVertex
 10
-4378.757640551658
 20
-6197.43635555149
 30
0.0
  0
VERTEX
  5
3C8
330
3C4
100
AcDbEntity
  8
一般
  6
Continuous
 62
   253
370
     5
100
AcDbVertex
100
AcDb2dVertex
 10
-4396.284218478409
 20
-6119.379843547827
 30
0.0
  0
SEQEND
  5
3C9
330
3C4
100
AcDbEntity
  8
一般
  6
Continuous
 62
   253
370
     5
  0
HATCH
  5
3CA
330
1F
100
AcDbEntity
  8
一般
  6
Continuous
 62
   254
370
     0
100
AcDbHatch
 10
0.0
 20
0.0
 30
0.0
210
0.0
220
0.0
230
1.0
  2
SOLID
 70
     1
 71
     1
 91
        1
 92
        1
 93
        4
 72
     1
 10
-6541.996107350189
 20
-6601.171633410243
 11
-6524.469529423441
 21
-6679.228145413904
 72
     1
 10
-6524.469529423441
 20
-6679.228145413904
 11
-4378.757640551658
 21
-6197.43635555149
 72
     1
 10
-4378.757640551658
 20
-6197.43635555149
 11
-4396.284218478409
 21
-6119.379843547827
 72
     1
 10
-4396.284218478409
 20
-6119.379843547827
 11
-6541.996107350189
 21
-6601.171633410243
 97
        1
330
3C4
 75
     0
 76
     1
 98
        1
 10
0.0
 20
0.0
  0
DIMENSION
  5
3CB
330
1F
100
AcDbEntity
  8
寸法
  6
Continuous
 62
   250
370
     5
100
AcDbDimension
  2
*D11
 10
-5216.614059838349
 20
-10005.61464587838
 30
0.0
 11
-5216.614059838349
 21
-8325.61464587838
 31
0.0
 70
    32
 71
     5
 42
3360.000000000001
  3
SIA
100
AcDbAlignedDimension
 13
-5416.614059838349
 23
-6645.61464587838
 33
0.0
 14
-5416.614059838349
 24
-10005.61464587838
 34
0.0
 50
-90.0
100
AcDbRotatedDimension
1001
ACAD
1000
DSTYLE
1002
{
1070
   147
1040
39.6875
1070
    77
1070
     0
1070
   340
1005
69
1002
}
  0
POLYLINE
  5
3CC
102
{ACAD_REACTORS
330
3D2
102
}
330
1F
100
AcDbEntity
  8
一般
  6
Continuous
 62
     7
370
     5
100
AcDb2dPolyline
 66
     1
 10
0.0
 20
0.0
 30
0.0
 70
     5
 75
     5
  0
VERTEX
  5
3CD
330
3CC
100
AcDbEntity
  8
一般
  6
Continuous
 62
     7
370
     5
100
AcDbVertex
100
AcDb2dVertex
 10
6620.404558748673
 20
-6401.171633410245
 30
0.0
  0
VERTEX
  5
3CE
330
3CC
100
AcDbEntity
  8
一般
  6
Continuous
 62
     7
370
     5
100
AcDbVertex
100
AcDb2dVertex
 10
6758.00389264981
 20
-6401.171633410245
 30
0.0
  0
VERTEX
  5
3CF
330
3CC
100
AcDbEntity
  8
一般
  6
Continuous
 62
     7
370
     5
100
AcDbVertex
100
AcDb2dVertex
 10
6758.00389264981
 20
-6480.61464587838
 30
0.0
  0
VERTEX
  5
3D0
330
3CC
100
AcDbEntity
  8
一般
  6
Continuous
 62
     7
370
     5
100
AcDbVertex
100
AcDb2dVertex
 10
6620.404558748673
 20
-6480.61464587838
 30
0.0
  0
SEQEND
  5
3D1
330
3CC
100
AcDbEntity
  8
一般
  6
Continuous
 62
     7
370
     5
  0
HATCH
  5
3D2
330
1F
100
AcDbEntity
  8
一般
  6
Continuous
 62
   251
370
     0
100
AcDbHatch
 10
0.0
 20
0.0
 30
0.0
210
0.0
220
0.0
230
1.0
  2
SOLID
 70
     1
 71
     1
 91
        1
 92
        1
 93
        4
 72
     1
 10
6620.404558748673
 20
-6401.171633410245
 11
6758.00389264981
 21
-6401.171633410245
 72
     1
 10
6758.00389264981
 20
-6401.171633410245
 11
6758.00389264981
 21
-6480.61464587838
 72
     1
 10
6758.00389264981
 20
-6480.61464587838
 11
6620.404558748673
 21
-6480.61464587838
 72
     1
 10
6620.404558748673
 20
-6480.61464587838
 11
6620.404558748673
 21
-6401.171633410245
 97
        1
330
3CC
 75
     0
 76
     1
 98
        1
 10
0.0
 20
0.0
  0
WIPEOUT
  5
3D3
330
1F
100
AcDbEntity
  8
一般
  6
Continuous
 62
     7
370
     5
 92
      152
310
98000000040000000C0000000E000000120000000C00000016000000000000C20C00000014000000010000006C0000000700000004000000A1D31BFF0048BA4041AA6E599D50B9C00000000000000000A1D31BFF0066BA4041AA6E599D50B9C00000000000000000A1D31BFF0066BA4041AA6E599DA2BCC000000000000000
310
00A1D31BFF0048BA4041AA6E599DA2BCC00000000000000000
100
AcDbWipeout
 90
        0
 10
6728.00389264981
 20
-7330.61464587838
 30
0.0
 11
850.0
 21
0.0
 31
0.0
 12
0.0
 22
850.0
 32
0.0
 13
1.0
 23
1.0
340
0
 70
     4
280
     1
281
    50
282
    50
283
     0
360
0
 71
     2
 91
        5
 14
-0.5
 24
-0.5000000000000018
 14
-0.4647058823529413
 24
-0.5000000000000018
 14
-0.4647058823529413
 24
0.4999999999999982
 14
-0.5
 24
0.4999999999999982
 14
-0.5
 24
-0.5000000000000018
  0
POLYLINE
  5
3D4
330
1F
100
AcDbEntity
  8
一般
  6
Continuous
 62
     7
370
     5
100
AcDb2dPolyline
 66
     1
 10
0.0
 20
0.0
 30
0.0
 70
     5
 75
     5
  0
VERTEX
  5
3D5
330
3D4
100
AcDbEntity
  8
一般
  6
Continuous
 62
     7
370
     5
100
AcDbVertex
100
AcDb2dVertex
 10
6728.00389264981
 20
-6480.61464587838
 30
0.0
  0
VERTEX
  5
3D6
330
3D4
100
AcDbEntity
  8
一般
  6
Continuous
 62
     7
370
     5
100
AcDbVertex
100
AcDb2dVertex
 10
6758.00389264981
 20
-6480.61464587838
 30
0.0
  0
VERTEX
  5
3D7
330
3D4
100
AcDbEntity
  8
一般
  6
Continuous
 62
     7
370
     5
100
AcDbVertex
100
AcDb2dVertex
 10
6758.00389264981
 20
-7330.61464587838
 30
0.0
  0
VERTEX
  5
3D8
330
3D4
100
AcDbEntity
  8
一般
  6
Continuous
 62
     7
370
     5
100
AcDbVertex
100
AcDb2dVertex
 10
6728.00389264981
 20
-7330.61464587838
 30
0.0
  0
SEQEND
  5
3D9
330
3D4
100
AcDbEntity
  8
一般
  6
Continuous
 62
     7
370
     5
  0
POLYLINE
  5
3DA
102
{ACAD_REACTORS
330
3E0
102
}
330
1F
100
AcDbEntity
  8
一般
  6
Continuous
 62
     7
370
     5
100
AcDb2dPolyline
 66
     1
 10
0.0
 20
0.0
 30
0.0
 70
     5
 75
     5
  0
VERTEX
  5
3DB
330
3DA
100
AcDbEntity
  8
一般
  6
Continuous
 62
     7
370
     5
100
AcDbVertex
100
AcDb2dVertex
 10
6658.00389264981
 20
-7330.61464587838
 30
0.0
  0
VERTEX
  5
3DC
330
3DA
100
AcDbEntity
  8
一般
  6
Continuous
 62
     7
370
     5
100
AcDbVertex
100
AcDb2dVertex
 10
6758.00389264981
 20
-7330.61464587838
 30
0.0
  0
VERTEX
  5
3DD
330
3DA
100
AcDbEntity
  8
一般
  6
Continuous
 62
     7
370
     5
100
AcDbVertex
100
AcDb2dVertex
 10
6758.00389264981
 20
-7430.61464587838
 30
0.0
  0
VERTEX
  5
3DE
330
3DA
100
AcDbEntity
  8
一般
  6
Continuous
 62
     7
370
     5
100
AcDbVertex
100
AcDb2dVertex
 10
6658.00389264981
 20
-7430.61464587838
 30
0.0
  0
SEQEND
  5
3DF
330
3DA
100
AcDbEntity
  8
一般
  6
Continuous
 62
     7
370
     5
  0
HATCH
  5
3E0
330
1F
100
AcDbEntity
  8
一般
  6
Continuous
 62
   251
370
     0
100
AcDbHatch
 10
0.0
 20
0.0
 30
0.0
210
0.0
220
0.0
230
1.0
  2
SOLID
 70
     1
 71
     1
 91
        1
 92
        1
 93
        4
 72
     1
 10
6658.00389264981
 20
-7330.61464587838
 11
6758.00389264981
 21
-7330.61464587838
 72
     1
 10
6758.00389264981
 20
-7330.61464587838
 11
6758.00389264981
 21
-7430.61464587838
 72
     1
 10
6758.00389264981
 20
-7430.61464587838
 11
6658.00389264981
 21
-7430.61464587838
 72
     1
 10
6658.00389264981
 20
-7430.61464587838
 11
6658.00389264981
 21
-7330.61464587838
 97
        1
330
3DA
 75
     0
 76
     1
 98
        1
 10
0.0
 20
0.0
  0
WIPEOUT
  5
3E1
330
1F
100
AcDbEntity
  8
一般
  6
Continuous
 62
     7
370
     5
 92
      152
310
98000000040000000C0000000E000000120000000C00000016000000000000C20C00000014000000010000006C0000000700000004000000A0D31BFF0025BA4044AA6E599D06BDC00000000000000000A0D31BFF0043BA4044AA6E599D06BDC00000000000000000A0D31BFF0043BA401E55B7AC4EDFC6C000000000000000
310
00A0D31BFF0025BA401E55B7AC4EDFC6C00000000000000000
100
AcDbWipeout
 90
        0
 10
6693.00389264981
 20
-11710.61464587837
 30
0.0
 11
4279.999999999992
 21
0.0
 31
0.0
 12
0.0
 22
4279.999999999992
 32
0.0
 13
1.0
 23
1.0
340
0
 70
     4
280
     1
281
    50
282
    50
283
     0
360
0
 71
     2
 91
        5
 14
-0.5000000000000002
 24
-0.4999999999999996
 14
-0.4929906542056077
 24
-0.4999999999999996
 14
-0.4929906542056077
 24
0.5000000000000004
 14
-0.5000000000000002
 24
0.5000000000000004
 14
-0.5000000000000002
 24
-0.4999999999999996
  0
POLYLINE
  5
3E2
330
1F
100
AcDbEntity
  8
一般
  6
Continuous
 62
     7
370
     5
100
AcDb2dPolyline
 66
     1
 10
0.0
 20
0.0
 30
0.0
 70
     5
 75
     5
  0
VERTEX
  5
3E3
330
3E2
100
AcDbEntity
  8
一般
  6
Continuous
 62
     7
370
     5
100
AcDbVertex
100
AcDb2dVertex
 10
6693.00389264981
 20
-7430.61464587838
 30
0.0
  0
VERTEX
  5
3E4
330
3E2
100
AcDbEntity
  8
一般
  6
Continuous
 62
     7
370
     5
100
AcDbVertex
100
AcDb2dVertex
 10
6723.00389264981
 20
-7430.61464587838
 30
0.0
  0
VERTEX
  5
3E5
330
3E2
100
AcDbEntity
  8
一般
  6
Continuous
 62
     7
370
     5
100
AcDbVertex
100
AcDb2dVertex
 10
6723.00389264981
 20
-11710.61464587837
 30
0.0
  0
VERTEX
  5
3E6
330
3E2
100
AcDbEntity
  8
一般
  6
Continuous
 62
     7
370
     5
100
AcDbVertex
100
AcDb2dVertex
 10
6693.00389264981
 20
-11710.61464587837
 30
0.0
  0
SEQEND
  5
3E7
330
3E2
100
AcDbEntity
  8
一般
  6
Continuous
 62
     7
370
     5
  0
POLYLINE
  5
3E8
102
{ACAD_REACTORS
330
3EE
102
}
330
1F
100
AcDbEntity
  8
一般
  6
Continuous
 62
     7
370
     5
100
AcDb2dPolyline
 66
     1
 10
0.0
 20
0.0
 30
0.0
 70
     5
 75
     5
  0
VERTEX
  5
3E9
330
3E8
100
AcDbEntity
  8
一般
  6
Continuous
 62
     7
370
     5
100
AcDbVertex
100
AcDb2dVertex
 10
6641.081768672355
 20
-11700.61464587837
 30
0.0
  0
VERTEX
  5
3EA
330
3E8
100
AcDbEntity
  8
一般
  6
Continuous
 62
     7
370
     5
100
AcDbVertex
100
AcDb2dVertex
 10
6751.081768672355
 20
-11700.61464587837
 30
0.0
  0
VERTEX
  5
3EB
330
3E8
100
AcDbEntity
  8
一般
  6
Continuous
 62
     7
370
     5
100
AcDbVertex
100
AcDb2dVertex
 10
6751.081768672355
 20
-12086.17163341024
 30
0.0
  0
VERTEX
  5
3EC
330
3E8
100
AcDbEntity
  8
一般
  6
Continuous
 62
     7
370
     5
100
AcDbVertex
100
AcDb2dVertex
 10
6641.081768672355
 20
-12086.17163341024
 30
0.0
  0
SEQEND
  5
3ED
330
3E8
100
AcDbEntity
  8
一般
  6
Continuous
 62
     7
370
     5
  0
HATCH
  5
3EE
330
1F
100
AcDbEntity
  8
一般
  6
Continuous
 62
     8
370
     0
100
AcDbHatch
 10
0.0
 20
0.0
 30
0.0
210
0.0
220
0.0
230
1.0
  2
SOLID
 70
     1
 71
     1
 91
        1
 92
        1
 93
        4
 72
     1
 10
6641.081768672355
 20
-11700.61464587837
 11
6751.081768672355
 21
-11700.61464587837
 72
     1
 10
6751.081768672355
 20
-11700.61464587837
 11
6751.081768672355
 21
-12086.17163341024
 72
     1
 10
6751.081768672355
 20
-12086.17163341024
 11
6641.081768672355
 21
-12086.17163341024
 72
     1
 10
6641.081768672355
 20
-12086.17163341024
 11
6641.081768672355
 21
-11700.61464587837
 97
        1
330
3E8
 75
     0
 76
     1
 98
        1
 10
0.0
 20
0.0
  0
DIMENSION
  5
3EF
330
1F
100
AcDbEntity
  8
寸法
  6
Continuous
 62
   250
370
     5
100
AcDbDimension
  2
*D12
 10
9021.081768672355
 20
-11700.61464587837
 30
0.0
 11
9021.081768672355
 21
-9560.614645878375
 31
0.0
 70
    32
 71
     5
 42
4279.999999999992
  3
SIA
100
AcDbAlignedDimension
 13
6901.081768672355
 23
-7420.61464587838
 33
0.0
 14
6901.081768672355
 24
-11700.61464587837
 34
0.0
 50
-90.0
100
AcDbRotatedDimension
1001
ACAD
1000
DSTYLE
1002
{
1070
   147
1040
39.6875
1070
    77
1070
     0
1070
   340
1005
69
1070
   271
1070
     3
1002
}
  0
WIPEOUT
  5
3F0
330
1F
100
AcDbEntity
  8
一般
  6
Continuous
 62
     7
370
     5
 92
      152
310
98000000040000000C0000000E000000120000000C00000016000000000000C20C00000014000000010000006C0000000700000004000000000000000000E0BF000000000000E03F0000000000000000000000000000E03F000000000000E03F0000000000000000000000000000E03F4A4883344883D4BF00000000000000
310
00000000000000E0BF4A4883344883D4BF0000000000000000
100
AcDbWipeout
 90
        0
 10
-0.5
 20
-0.3205128205128217
 30
0.0
 11
1.0
 21
0.0
 31
0.0
 12
0.0
 22
1.0
 32
0.0
 13
1.0
 23
1.0
340
0
 70
     4
280
     1
281
    50
282
    50
283
     0
360
0
 71
     2
 91
        5
 14
-0.5
 24
-0.3205128205128217
 14
0.5
 24
-0.3205128205128217
 14
0.5
 24
0.5
 14
-0.5
 24
0.5
 14
-0.5
 24
-0.3205128205128217
  0
MTEXT
  5
3F1
330
1F
100
AcDbEntity
  8
一般
 62
     7
100
AcDbMText
 10
9487.135685548581
 20
4956.739534741653
 30
0.0
 40
145.5208333333333
 41
0.0
 71
     1
 72
     1
  1
{\fＭＳ Ｐゴシック|b0|i0|c128|p0;\lGL}
 73
     1
 44
0.8762322015334064
  0
POLYLINE
  5
3F2
102
{ACAD_REACTORS
330
3F8
102
}
330
1F
100
AcDbEntity
  8
一般
  6
Continuous
 62
     7
370
     5
100
AcDb2dPolyline
 66
     1
 10
0.0
 20
0.0
 30
0.0
 70
     5
 75
     5
  0
VERTEX
  5
3F3
330
3F2
100
AcDbEntity
  8
一般
  6
Continuous
 62
     7
370
     5
100
AcDbVertex
100
AcDb2dVertex
 10
-6434.175513041375
 20
11824.36171387646
 30
0.0
  0
VERTEX
  5
3F4
330
3F2
100
AcDbEntity
  8
一般
  6
Continuous
 62
     7
370
     5
100
AcDbVertex
100
AcDb2dVertex
 10
-2284.175513041376
 20
11824.36171387646
 30
0.0
  0
VERTEX
  5
3F5
330
3F2
100
AcDbEntity
  8
一般
  6
Continuous
 62
     7
370
     5
100
AcDbVertex
100
AcDb2dVertex
 10
-2284.175513041376
 20
10274.36171387645
 30
0.0
  0
VERTEX
  5
3F6
330
3F2
100
AcDbEntity
  8
一般
  6
Continuous
 62
     7
370
     5
100
AcDbVertex
100
AcDb2dVertex
 10
-6434.175513041375
 20
10274.36171387645
 30
0.0
  0
SEQEND
  5
3F7
330
3F2
100
AcDbEntity
  8
一般
  6
Continuous
 62
     7
370
     5
  0
HATCH
  5
3F8
330
1F
100
AcDbEntity
  8
一般
  6
Continuous
 62
   254
370
     0
100
AcDbHatch
 10
0.0
 20
0.0
 30
0.0
210
0.0
220
0.0
230
1.0
  2
SOLID
 70
     1
 71
     1
 91
        1
 92
        1
 93
        4
 72
     1
 10
-6434.175513041375
 20
11824.36171387646
 11
-2284.175513041376
 21
11824.36171387646
 72
     1
 10
-2284.175513041376
 20
11824.36171387646
 11
-2284.175513041376
 21
10274.36171387645
 72
     1
 10
-2284.175513041376
 20
10274.36171387645
 11
-6434.175513041375
 21
10274.36171387645
 72
     1
 10
-6434.175513041375
 20
10274.36171387645
 11
-6434.175513041375
 21
11824.36171387646
 97
        1
330
3F2
 75
     0
 76
     1
 98
        1
 10
0.0
 20
0.0
  0
WIPEOUT
  5
3F9
330
1F
100
AcDbEntity
  8
一般
  6
Continuous
 62
     7
370
     5
 92
      152
310
98000000040000000C0000000E000000120000000C00000016000000000000C20C00000014000000010000006C0000000700000004000000000000000000E0BF000000000000E03F0000000000000000000000000000E03F000000000000E03F0000000000000000000000000000E03F32E3388E5555C53F00000000000000
310
00000000000000E0BF32E3388E5555C53F0000000000000000
100
AcDbWipeout
 90
        0
 10
-0.5
 20
0.1666666931576173
 30
0.0
 11
1.0
 21
0.0
 31
0.0
 12
0.0
 22
1.0
 32
0.0
 13
1.0
 23
1.0
340
0
 70
     4
280
     1
281
    50
282
    50
283
     0
360
0
 71
     2
 91
        5
 14
-0.5
 24
0.1666666931576173
 14
0.5
 24
0.1666666931576173
 14
0.5
 24
0.4999999999999999
 14
-0.5
 24
0.4999999999999999
 14
-0.5
 24
0.1666666931576173
  0
MTEXT
  5
3FA
330
1F
100
AcDbEntity
  8
一般
 62
     7
100
AcDbMText
 10
-7188.78822512254
 20
8776.50717334642
 30
0.0
 40
194.0277777777778
 41
0.0
 71
     1
 72
     1
  1
{\fＭＳ Ｐゴシック|b0|i0|c128|p0;\l搬入扉}
 73
     1
 44
0.8762322015334064
  0
WIPEOUT
  5
3FB
330
1F
100
AcDbEntity
  8
一般
  6
Continuous
 62
     7
370
     5
 92
      152
310
98000000040000000C0000000E000000120000000C00000016000000000000C20C00000014000000010000006C0000000700000004000000000000000000E0BF000000000000E03F0000000000000000000000000000E03F000000000000E03F0000000000000000000000000000E03FED479DF2479DD23F00000000000000
310
00000000000000E0BFED479DF2479DD23F0000000000000000
100
AcDbWipeout
 90
        0
 10
-0.5
 20
0.2908496732026141
 30
0.0
 11
1.0
 21
0.0
 31
0.0
 12
0.0
 22
1.0
 32
0.0
 13
1.0
 23
1.0
340
0
 70
     4
280
     1
281
    50
282
    50
283
     0
360
0
 71
     2
 91
        5
 14
-0.5
 24
0.290849673202614
 14
0.5
 24
0.290849673202614
 14
0.5
 24
0.4999999999999999
 14
-0.5
 24
0.4999999999999999
 14
-0.5
 24
0.290849673202614
  0
MTEXT
  5
3FC
330
1F
100
AcDbEntity
  8
一般
 62
     7
100
AcDbMText
 10
6054.460974392432
 20
8776.50717334642
 30
0.0
 40
194.0277777777778
 41
0.0
 71
     1
 72
     1
  1
{\fＭＳ Ｐゴシック|b0|i0|c128|p0;\l搬入ｼｬｯﾀｰ}
 73
     1
 44
0.8762322015334064
  0
WIPEOUT
  5
3FD
330
1F
100
AcDbEntity
  8
一般
  6
Continuous
 62
     7
370
     5
 92
      152
310
98000000040000000C0000000E000000120000000C00000016000000000000C20C00000014000000010000006C0000000700000004000000000000000000E0BF000000000000E03F0000000000000000000000000000E03F000000000000E03F0000000000000000000000000000E03F98925F2CF9C5B23F00000000000000
310
00000000000000E0BF98925F2CF9C5B23F0000000000000000
100
AcDbWipeout
 90
        0
 10
-0.5
 20
0.0733333333333327
 30
0.0
 11
1.0
 21
0.0
 31
0.0
 12
0.0
 22
1.0
 32
0.0
 13
1.0
 23
1.0
340
0
 70
     4
280
     1
281
    50
282
    50
283
     0
360
0
 71
     2
 91
        5
 14
-0.5
 24
0.0733333333333327
 14
0.5
 24
0.0733333333333327
 14
0.5
 24
0.5
 14
-0.5
 24
0.5
 14
-0.5
 24
0.0733333333333327
  0
MTEXT
  5
3FE
330
1F
100
AcDbEntity
  8
一般
 62
     7
100
AcDbMText
 10
2503.603092837654
 20
-6837.271523870972
 30
0.0
 40
145.5208333333333
 41
0.0
 71
     1
 72
     1
  1
{\fＭＳ Ｐゴシック|b0|i0|c128|p0;\lH=1.1}
 73
     1
 44
0.8762322015334064
  0
WIPEOUT
  5
3FF
330
1F
100
AcDbEntity
  8
一般
  6
Continuous
 62
     7
370
     5
 92
      152
310
98000000040000000C0000000E000000120000000C00000016000000000000C20C00000014000000010000006C0000000700000004000000000000000000E0BF000000000000E03F0000000000000000000000000000E03F000000000000E03F0000000000000000000000000000E03F4A4883344883D4BF00000000000000
310
00000000000000E0BF4A4883344883D4BF0000000000000000
100
AcDbWipeout
 90
        0
 10
-0.5
 20
-0.3205128205128217
 30
0.0
 11
1.0
 21
0.0
 31
0.0
 12
0.0
 22
1.0
 32
0.0
 13
1.0
 23
1.0
340
0
 70
     4
280
     1
281
    50
282
    50
283
     0
360
0
 71
     2
 91
        5
 14
-0.5
 24
-0.3205128205128217
 14
0.5
 24
-0.3205128205128217
 14
0.5
 24
0.5
 14
-0.5
 24
0.5
 14
-0.5
 24
-0.3205128205128217
  0
MTEXT
  5
400
330
1F
100
AcDbEntity
  8
一般
 62
     7
100
AcDbMText
 10
5322.136430881079
 20
-6823.104857204308
 30
0.0
 40
145.5208333333333
 41
0.0
 71
     1
 72
     1
  1
{\fＭＳ Ｐゴシック|b0|i0|c128|p0;\lGL}
 73
     1
 44
0.8762322015334064
  0
CIRCLE
  5
401
102
{ACAD_REACTORS
330
402
102
}
330
1F
100
AcDbEntity
  8
一般
  6
Continuous
 62
     7
370
     5
100
AcDbCircle
 10
4890.003892649811
 20
-6876.171633410244
 30
0.0
 40
35.34714183855116
  0
HATCH
  5
402
330
1F
100
AcDbEntity
  8
一般
  6
Continuous
 62
     7
370
     0
100
AcDbHatch
 10
0.0
 20
0.0
 30
0.0
210
0.0
220
0.0
230
1.0
  2
SOLID
 70
     1
 71
     1
 91
        1
 92
        1
 93
        1
 72
     2
 10
4890.003892649811
 20
-6876.171633410244
 40
35.34714183855116
 50
0.0
 51
360.0
 73
     1
 97
        1
330
401
 75
     0
 76
     1
 98
        1
 10
0.0
 20
0.0
  0
WIPEOUT
  5
403
330
1F
100
AcDbEntity
  8
一般
  6
Continuous
 62
     7
370
     5
 92
      152
310
98000000040000000C0000000E000000120000000C00000016000000000000C20C00000014000000010000006C0000000700000004000000000000000000E0BF000000000000E03F0000000000000000000000000000E03F000000000000E03F0000000000000000000000000000E03F2E3333333333D33F00000000000000
310
00000000000000E0BF2E3333333333D33F0000000000000000
100
AcDbWipeout
 90
        0
 10
-0.5
 20
0.2999999999999997
 30
0.0
 11
1.0
 21
0.0
 31
0.0
 12
0.0
 22
1.0
 32
0.0
 13
1.0
 23
1.0
340
0
 70
     4
280
     1
281
    50
282
    50
283
     0
360
0
 71
     2
 91
        5
 14
-0.5
 24
0.2999999999999997
 14
0.5
 24
0.2999999999999997
 14
0.5
 24
0.5
 14
-0.5
 24
0.5
 14
-0.5
 24
0.2999999999999997
  0
MTEXT
  5
404
330
1F
100
AcDbEntity
  8
一般
 62
     7
100
AcDbMText
 10
-9457.551662905744
 20
-8694.164579426528
 30
0.0
 40
194.0277777777778
 41
0.0
 71
     1
 72
     1
  1
{\fＭＳ Ｐゴシック|b0|i0|c128|p0;\l舞台下手奥}
 73
     1
 44
0.8762322015334064
  0
WIPEOUT
  5
405
330
1F
100
AcDbEntity
  8
一般
  6
Continuous
 62
     7
370
     5
 92
      152
310
98000000040000000C0000000E000000120000000C00000016000000000000C20C00000014000000010000006C0000000700000004000000000000000000E0BF000000000000E03F0000000000000000000000000000E03F000000000000E03F0000000000000000000000000000E03F000000000000CCBC00000000000000
310
00000000000000E0BF000000000000CCBC0000000000000000
100
AcDbWipeout
 90
        0
 10
-0.5
 20
-0.0000000000000008
 30
0.0
 11
1.0
 21
0.0
 31
0.0
 12
0.0
 22
1.0
 32
0.0
 13
1.0
 23
1.0
340
0
 70
     4
280
     1
281
    50
282
    50
283
     0
360
0
 71
     2
 91
        5
 14
-0.5
 24
-0.0000000000000008
 14
0.5
 24
-0.0000000000000008
 14
0.5
 24
0.5
 14
-0.5
 24
0.5
 14
-0.5
 24
-0.0000000000000008
  0
MTEXT
  5
406
330
1F
100
AcDbEntity
  8
一般
 62
     7
100
AcDbMText
 10
-4437.551662905745
 20
-8694.164579426528
 30
0.0
 40
194.0277777777778
 41
0.0
 71
     1
 72
     1
  1
{\fＭＳ Ｐゴシック|b0|i0|c128|p0;\l荷解}
 73
     1
 44
0.8762322015334064
  0
WIPEOUT
  5
407
330
1F
100
AcDbEntity
  8
一般
  6
Continuous
 62
     7
370
     5
 92
      152
310
98000000040000000C0000000E000000120000000C00000016000000000000C20C00000014000000010000006C0000000700000004000000000000000000E0BF000000000000E03F0000000000000000000000000000E03F000000000000E03F0000000000000000000000000000E03F32E3388E5555C53F00000000000000
310
00000000000000E0BF32E3388E5555C53F0000000000000000
100
AcDbWipeout
 90
        0
 10
-0.5
 20
0.1666666931576173
 30
0.0
 11
1.0
 21
0.0
 31
0.0
 12
0.0
 22
1.0
 32
0.0
 13
1.0
 23
1.0
340
0
 70
     4
280
     1
281
    50
282
    50
283
     0
360
0
 71
     2
 91
        5
 14
-0.5
 24
0.1666666931576173
 14
0.5
 24
0.1666666931576173
 14
0.5
 24
0.4999999999999999
 14
-0.5
 24
0.4999999999999999
 14
-0.5
 24
0.1666666931576173
  0
MTEXT
  5
408
330
1F
100
AcDbEntity
  8
一般
 62
     7
100
AcDbMText
 10
-7296.608819431354
 20
-7994.164579426529
 30
0.0
 40
194.0277777777778
 41
0.0
 71
     1
 72
     1
  1
{\fＭＳ Ｐゴシック|b0|i0|c128|p0;\l搬入扉}
 73
     1
 44
0.8762322015334064
  0
WIPEOUT
  5
409
330
1F
100
AcDbEntity
  8
一般
  6
Continuous
 62
     7
370
     5
 92
      152
310
98000000040000000C0000000E000000120000000C00000016000000000000C20C00000014000000010000006C0000000700000004000000000000000000E0BF000000000000E03F0000000000000000000000000000E03F000000000000E03F0000000000000000000000000000E03FED479DF2479DD23F00000000000000
310
00000000000000E0BFED479DF2479DD23F0000000000000000
100
AcDbWipeout
 90
        0
 10
-0.5
 20
0.2908496732026141
 30
0.0
 11
1.0
 21
0.0
 31
0.0
 12
0.0
 22
1.0
 32
0.0
 13
1.0
 23
1.0
340
0
 70
     4
280
     1
281
    50
282
    50
283
     0
360
0
 71
     2
 91
        5
 14
-0.5
 24
0.290849673202614
 14
0.5
 24
0.290849673202614
 14
0.5
 24
0.4999999999999999
 14
-0.5
 24
0.4999999999999999
 14
-0.5
 24
0.290849673202614
  0
MTEXT
  5
40A
330
1F
100
AcDbEntity
  8
一般
 62
     7
100
AcDbMText
 10
5946.640380083618
 20
-7994.164579426529
 30
0.0
 40
194.0277777777778
 41
0.0
 71
     1
 72
     1
  1
{\fＭＳ Ｐゴシック|b0|i0|c128|p0;\l搬入ｼｬｯﾀｰ}
 73
     1
 44
0.8762322015334064
  0
WIPEOUT
  5
40B
330
1F
100
AcDbEntity
  8
一般
  6
Continuous
 62
     7
370
     5
 92
      152
310
98000000040000000C0000000E000000120000000C00000016000000000000C20C00000014000000010000006C0000000700000004000000000000000000E0BF000000000000E03F0000000000000000000000000000E03F000000000000E03F0000000000000000000000000000E03F5A3F782BB508D93F00000000000000
310
00000000000000E0BF5A3F782BB508D93F0000000000000000
100
AcDbWipeout
 90
        0
 10
-0.5
 20
0.3911564754971458
 30
0.0
 11
1.0
 21
0.0
 31
0.0
 12
0.0
 22
1.0
 32
0.0
 13
1.0
 23
1.0
340
0
 70
     4
280
     1
281
    50
282
    50
283
     0
360
0
 71
     2
 91
        5
 14
-0.5
 24
0.3911564754971458
 14
0.5
 24
0.3911564754971458
 14
0.5
 24
0.5
 14
-0.5
 24
0.5
 14
-0.5
 24
0.3911564754971458
  0
MTEXT
  5
40C
330
1F
100
AcDbEntity
  8
一般
 62
     7
100
AcDbMText
 10
-3950.0
 20
13658.69305555556
 30
0.0
 40
339.5486111111111
 41
0.0
 71
     1
 72
     1
  1
{\fＭＳ Ｐゴシック|b0|i0|c128|p0;\lとりぎん文化会館（鳥取県立県民文化会館）\P　　　梨花ホール　搬入口図面　１：１００}
 73
     1
 44
0.8762322015334064
  0
WIPEOUT
  5
40D
330
1F
100
AcDbEntity
  8
一般
  6
Continuous
 62
     7
370
     5
 92
      152
310
98000000040000000C0000000E000000120000000C00000016000000000000C20C00000014000000010000006C0000000700000004000000000000000000E0BF000000000000E03F0000000000000000000000000000E03F000000000000E03F0000000000000000000000000000E03FC2672FA15555C53F00000000000000
310
00000000000000E0BFC2672FA15555C53F0000000000000000
100
AcDbWipeout
 90
        0
 10
-0.5
 20
0.1666667019879338
 30
0.0
 11
1.0
 21
0.0
 31
0.0
 12
0.0
 22
1.0
 32
0.0
 13
1.0
 23
1.0
340
0
 70
     4
280
     1
281
    50
282
    50
283
     0
360
0
 71
     2
 91
        5
 14
-0.5
 24
0.1666667019879338
 14
0.5
 24
0.1666667019879338
 14
0.5
 24
0.4999999999999999
 14
-0.5
 24
0.4999999999999999
 14
-0.5
 24
0.1666667019879338
  0
MTEXT
  5
40E
330
1F
100
AcDbEntity
  8
一般
 62
     7
100
AcDbMText
 10
-890.8333333333335
 20
2449.098972916787
 30
0.0
 40
291.0416666666666
 41
0.0
 71
     1
 72
     1
  1
{\fＭＳ Ｐゴシック|b0|i0|c128|p0;\l断面図}
 73
     1
 44
0.8762322015334064
  0
WIPEOUT
  5
40F
330
1F
100
AcDbEntity
  8
一般
  6
Continuous
 62
     7
370
     5
 92
      152
310
98000000040000000C0000000E000000120000000C00000016000000000000C20C00000014000000010000006C0000000700000004000000000000000000E0BF000000000000E03F0000000000000000000000000000E03F000000000000E03F0000000000000000000000000000E03FB4672FA15555C53F00000000000000
310
00000000000000E0BFB4672FA15555C53F0000000000000000
100
AcDbWipeout
 90
        0
 10
-0.5
 20
0.1666667019879334
 30
0.0
 11
1.0
 21
0.0
 31
0.0
 12
0.0
 22
1.0
 32
0.0
 13
1.0
 23
1.0
340
0
 70
     4
280
     1
281
    50
282
    50
283
     0
360
0
 71
     2
 91
        5
 14
-0.5
 24
0.1666667019879334
 14
0.5
 24
0.1666667019879334
 14
0.5
 24
0.5
 14
-0.5
 24
0.5
 14
-0.5
 24
0.1666667019879334
  0
MTEXT
  5
410
330
1F
100
AcDbEntity
  8
一般
 62
     7
100
AcDbMText
 10
-998.6539276421478
 20
-13209.61735720431
 30
0.0
 40
291.0416666666666
 41
0.0
 71
     1
 72
     1
  1
{\fＭＳ Ｐゴシック|b0|i0|c128|p0;\l平面図}
 73
     1
 44
0.8762322015334064
  0
WIPEOUT
  5
411
330
1F
100
AcDbEntity
  8
一般
  6
Continuous
 62
   253
370
     5
 92
      152
310
98000000040000000C0000000E000000120000000C00000016000000000000C20C00000014000000010000006C0000000700000004000000FFFFFFFFFF69B8C030F01464609C85400000000000000000A0D31BFF0066BA4030F01464609C85400000000000000000A0D31BFF0066BA40E6CB2AF02B45B6C000000000000000
310
00FFFFFFFFFF69B8C0E6CB2AF02B45B6C00000000000000000
100
AcDbWipeout
 90
        0
 10
-6250.0
 20
-5701.171633410244
 30
0.0
 11
13008.00389264981
 21
0.0
 31
0.0
 12
0.0
 22
13008.00389264981
 32
0.0
 13
1.0
 23
1.0
340
0
 70
     4
280
     1
281
    50
282
    50
283
     0
360
0
 71
     2
 91
        5
 14
-0.4999999999999999
 24
0.0085549826047236
 14
0.5
 24
0.0085549826047236
 14
0.5
 24
0.5
 14
-0.4999999999999999
 24
0.5
 14
-0.4999999999999999
 24
0.0085549826047236
  0
POLYLINE
  5
412
330
1F
100
AcDbEntity
  8
一般
  6
Continuous
 62
   253
370
     5
100
AcDb2dPolyline
 66
     1
 10
0.0
 20
0.0
 30
0.0
 70
     5
 75
     5
  0
VERTEX
  5
413
330
412
100
AcDbEntity
  8
一般
  6
Continuous
 62
   253
370
     5
100
AcDbVertex
100
AcDb2dVertex
 10
-6250.0
 20
691.5470658908652
 30
0.0
  0
VERTEX
  5
414
330
412
100
AcDbEntity
  8
一般
  6
Continuous
 62
   253
370
     5
100
AcDbVertex
100
AcDb2dVertex
 10
6758.003892649809
 20
691.5470658908652
 30
0.0
  0
VERTEX
  5
415
330
412
100
AcDbEntity
  8
一般
  6
Continuous
 62
   253
370
     5
100
AcDbVertex
100
AcDb2dVertex
 10
6758.003892649809
 20
-5701.171633410244
 30
0.0
  0
VERTEX
  5
416
330
412
100
AcDbEntity
  8
一般
  6
Continuous
 62
   253
370
     5
100
AcDbVertex
100
AcDb2dVertex
 10
-6250.0
 20
-5701.171633410244
 30
0.0
  0
SEQEND
  5
417
330
412
100
AcDbEntity
  8
一般
  6
Continuous
 62
   253
370
     5
  0
WIPEOUT
  5
418
330
1F
100
AcDbEntity
  8
一般
  6
Continuous
 62
     7
370
     5
 92
      152
310
98000000040000000C0000000E000000120000000C00000016000000000000C20C00000014000000010000006C0000000700000004000000000000000000E0BF000000000000E03F0000000000000000000000000000E03F000000000000E03F0000000000000000000000000000E03F48DF21DB5FA0D83F00000000000000
310
00000000000000E0BF48DF21DB5FA0D83F0000000000000000
100
AcDbWipeout
 90
        0
 10
-0.5
 20
0.3847884788478848
 30
0.0
 11
1.0
 21
0.0
 31
0.0
 12
0.0
 22
1.0
 32
0.0
 13
1.0
 23
1.0
340
0
 70
     4
280
     1
281
    50
282
    50
283
     0
360
0
 71
     2
 91
        5
 14
-0.5
 24
0.3847884788478848
 14
0.5
 24
0.3847884788478848
 14
0.5
 24
0.5
 14
-0.5
 24
0.5
 14
-0.5
 24
0.3847884788478848
  0
MTEXT
  5
419
330
1F
100
AcDbEntity
  8
一般
 62
     7
100
AcDbMText
 10
-1361.359892836564
 20
-2607.572222222223
 30
0.0
 40
194.0277777777778
 41
0.0
 71
     1
 72
     1
  1
{\fＭＳ Ｐゴシック|b0|i0|c128|p0;\lトラック留置（２台分）}
 73
     1
 44
0.8762322015334064
  0
INSERT
  5
41A
330
1F
100
AcDbEntity
  8
0
 62
     8
100
AcDbBlockReference
  2
グループ-3
 10
0.0
 20
0.0
 30
0.0
  0
INSERT
  5
41B
330
1F
100
AcDbEntity
  8
0
 62
     8
100
AcDbBlockReference
  2
グループ-4
 10
0.0
 20
0.0
 30
0.0
  0
ARC
  5
41C
330
1F
100
AcDbEntity
  8
一般
  6
Continuous
 62
     7
370
     5
100
AcDbCircle
 10
6758.00389264981
 20
-6480.61464587838
 30
0.0
 40
850.0
100
AcDbArc
 50
270.0
 51
0.0
  0
LINE
  5
41D
330
1F
100
AcDbEntity
  8
一般
  6
Continuous
 62
     7
370
     5
100
AcDbLine
 10
7608.00389264981
 20
-6480.61464587838
 30
0.0
 11
6758.00389264981
 21
-6480.61464587838
 31
0.0
  0
DIMENSION
  5
41E
330
1F
100
AcDbEntity
  8
寸法
  6
Continuous
 62
   250
370
     5
100
AcDbDimension
  2
*D15
 10
-2021.092129854596
 20
4874.437644189348
 30
0.0
 11
-2021.092129854596
 21
5374.437644189348
 31
0.0
 70
    32
 71
     5
 42
1000.0
  3
SIA
100
AcDbAlignedDimension
 13
-1826.254359492529
 23
5874.437644189348
 33
0.0
 14
-1826.254359492529
 24
4874.437644189348
 34
0.0
 50
-90.0
100
AcDbRotatedDimension
1001
ACAD
1000
DSTYLE
1002
{
1070
   147
1040
39.6875
1070
    77
1070
     0
1070
   340
1005
69
1070
   271
1070
     3
1002
}
  0
VIEWPORT
  5
41F
330
1B
100
AcDbEntity
 67
     1
  8
0
100
AcDbViewport
 10
128.5
 20
97.5
 30
0.0
 40
314.226
 41
222.18
 68
     1
 69
     1
 12
128.5
 22
97.5
 13
0.0
 23
0.0
 14
10.0
 24
10.0
 15
10.0
 25
10.0
 16
0.0
 26
0.0
 36
1.0
 17
0.0
 27
0.0
 37
0.0
 42
50.0
 43
0.0
 44
0.0
 45
222.18
 50
0.0
 51
0.0
 72
   100
 90
   557152
  1

281
     0
 71
     1
 74
     0
110
0.0
120
0.0
130
0.0
111
1.0
121
0.0
131
0.0
112
0.0
122
1.0
132
0.0
 79
     0
146
0.0
  0
ENDSEC
  0
SECTION
  2
OBJECTS
  0
DICTIONARY
  5
C
330
0
100
AcDbDictionary
281
     1
  3
ACAD_GROUP
350
D
  3
ACAD_LAYOUT
350
1A
  3
ACAD_MLEADERSTYLE
350
422
  3
ACAD_MLINESTYLE
350
17
  3
ACAD_PLOTSETTINGS
350
19
  3
ACAD_PLOTSTYLENAME
350
E
  3
ACAD_SCALELIST
350
AA
  3
ACAD_VISUALSTYLE
350
2A
  3
ACAD_WIPEOUT_VARS
350
68
  3
AcDbVariableDictionary
350
420
  0
DICTIONARY
  5
D
102
{ACAD_REACTORS
330
C
102
}
330
C
100
AcDbDictionary
281
     1
  0
DICTIONARY
  5
1A
102
{ACAD_REACTORS
330
C
102
}
330
C
100
AcDbDictionary
281
     1
  3
Layout1
350
1E
  3
Model
350
22
  0
DICTIONARY
  5
422
102
{ACAD_REACTORS
330
C
102
}
330
C
100
AcDbDictionary
281
     1
  0
DICTIONARY
  5
17
102
{ACAD_REACTORS
330
C
102
}
330
C
100
AcDbDictionary
281
     1
  3
Standard
350
18
  0
DICTIONARY
  5
19
102
{ACAD_REACTORS
330
C
102
}
330
C
100
AcDbDictionary
281
     1
  0
ACDBDICTIONARYWDFLT
  5
E
102
{ACAD_REACTORS
330
C
102
}
330
C
100
AcDbDictionary
281
     1
  3
Normal
350
F
100
AcDbDictionaryWithDefault
340
F
  0
DICTIONARY
  5
AA
102
{ACAD_REACTORS
330
C
102
}
330
C
100
AcDbDictionary
281
     1
  3
A0
350
AB
  3
A1
350
AC
  3
A2
350
AD
  3
A3
350
AE
  3
A4
350
AF
  3
A5
350
B0
  3
A6
350
B1
  3
A7
350
B2
  3
A8
350
B3
  3
A9
350
B4
  3
B0
350
B5
  3
B1
350
B6
  3
B2
350
B7
  3
B3
350
B8
  3
B4
350
B9
  3
B5
350
BA
  3
B6
350
BB
  3
B7
350
BC
  3
B8
350
BD
  3
B9
350
BE
  3
C0
350
BF
  3
C1
350
C0
  3
C2
350
C1
  3
C3
350
C2
  3
C4
350
C3
  3
C5
350
C4
  3
C6
350
C5
  3
C7
350
C6
  3
C8
350
C7
  3
C9
350
C8
  3
D0
350
C9
  3
D1
350
CA
  3
D2
350
CB
  0
DICTIONARY
  5
2A
102
{ACAD_REACTORS
330
C
102
}
330
C
100
AcDbDictionary
281
     1
  3
2dWireframe
350
2F
  3
3D Hidden
350
31
  3
3dWireframe
350
30
  3
Basic
350
32
  3
Brighten
350
36
  3
ColorChange
350
3A
  3
Conceptual
350
34
  3
Dim
350
35
  3
Facepattern
350
39
  3
Flat
350
2B
  3
FlatWithEdges
350
2C
  3
Gouraud
350
2D
  3
GouraudWithEdges
350
2E
  3
Linepattern
350
38
  3
Realistic
350
33
  3
Thicken
350
37
  0
WIPEOUTVARIABLES
  5
68
102
{ACAD_REACTORS
330
C
102
}
330
C
100
AcDbWipeoutVariables
 70
     0
  0
DICTIONARY
  5
420
102
{ACAD_REACTORS
330
C
102
}
330
C
100
AcDbDictionary
281
     1
  3
CANNOSCALE
350
423
  0
LAYOUT
  5
1E
102
{ACAD_REACTORS
330
1A
102
}
330
1A
100
AcDbPlotSettings
  1

  2
none_device
  4
ISO_A4_(210.00_x_297.00_MM)
  6

 40
7.5
 41
20.0
 42
7.5
 43
20.0
 44
210.0
 45
297.0
 46
0.0
 47
0.0
 48
0.0
 49
0.0
140
0.0
141
0.0
142
1.0
143
1.0
 70
   688
 72
     1
 73
     1
 74
     5
  7

 75
    16
147
1.0
148
0.0
149
0.0
100
AcDbLayout
  1
Layout1
 70
     1
 71
     1
 10
-20.0
 20
-7.5
 11
277.0
 21
202.5
 12
0.0
 22
0.0
 32
0.0
 14
1.000000000000000E+20
 24
1.000000000000000E+20
 34
1.000000000000000E+20
 15
-1.000000000000000E+20
 25
-1.000000000000000E+20
 35
-1.000000000000000E+20
146
0.0
 13
0.0
 23
0.0
 33
0.0
 16
1.0
 26
0.0
 36
0.0
 17
0.0
 27
1.0
 37
0.0
 76
     0
330
1B
331
41F
  0
LAYOUT
  5
22
102
{ACAD_REACTORS
330
1A
102
}
330
1A
100
AcDbPlotSettings
  1

  2
none_device
  4

  6

 40
0.0
 41
0.0
 42
0.0
 43
0.0
 44
0.0
 45
0.0
 46
0.0
 47
0.0
 48
0.0
 49
0.0
140
0.0
141
0.0
142
1.0
143
1.0
 70
  1712
 72
     0
 73
     0
 74
     0
  7

 75
     0
147
1.0
148
0.0
149
0.0
100
AcDbLayout
  1
Model
 70
     1
 71
     0
 10
0.0
 20
0.0
 11
12.0
 21
9.0
 12
0.0
 22
0.0
 32
0.0
 14
-9784.175513041375
 24
-13559.92569053764
 34
-144.399
 15
9856.888876307492
 25
13743.88888888889
 35
144.399
146
0.0
 13
0.0
 23
0.0
 33
0.0
 16
1.0
 26
0.0
 36
0.0
 17
0.0
 27
1.0
 37
0.0
 76
     0
330
1F
331
29
  0
MLINESTYLE
  5
18
102
{ACAD_REACTORS
330
17
102
}
330
17
100
AcDbMlineStyle
  2
Standard
 70
     0
  3

 62
   256
 51
90.0
 52
90.0
 71
     2
 49
0.5
 62
   256
  6
BYLAYER
 49
-0.5
 62
   256
  6
BYLAYER
  0
ACDBPLACEHOLDER
  5
F
102
{ACAD_REACTORS
330
E
102
}
330
E
  0
SCALE
  5
AB
102
{ACAD_REACTORS
330
AA
102
}
330
AA
100
AcDbScale
 70
     0
300
1:1
140
1.0
141
1.0
290
     1
  0
SCALE
  5
AC
102
{ACAD_REACTORS
330
AA
102
}
330
AA
100
AcDbScale
 70
     0
300
1:2
140
1.0
141
2.0
290
     0
  0
SCALE
  5
AD
102
{ACAD_REACTORS
330
AA
102
}
330
AA
100
AcDbScale
 70
     0
300
1:4
140
1.0
141
4.0
290
     0
  0
SCALE
  5
AE
102
{ACAD_REACTORS
330
AA
102
}
330
AA
100
AcDbScale
 70
     0
300
1:5
140
1.0
141
5.0
290
     0
  0
SCALE
  5
AF
102
{ACAD_REACTORS
330
AA
102
}
330
AA
100
AcDbScale
 70
     0
300
1:8
140
1.0
141
8.0
290
     0
  0
SCALE
  5
B0
102
{ACAD_REACTORS
330
AA
102
}
330
AA
100
AcDbScale
 70
     0
300
1:10
140
1.0
141
10.0
290
     0
  0
SCALE
  5
B1
102
{ACAD_REACTORS
330
AA
102
}
330
AA
100
AcDbScale
 70
     0
300
1:16
140
1.0
141
16.0
290
     0
  0
SCALE
  5
B2
102
{ACAD_REACTORS
330
AA
102
}
330
AA
100
AcDbScale
 70
     0
300
1:20
140
1.0
141
20.0
290
     0
  0
SCALE
  5
B3
102
{ACAD_REACTORS
330
AA
102
}
330
AA
100
AcDbScale
 70
     0
300
1:30
140
1.0
141
30.0
290
     0
  0
SCALE
  5
B4
102
{ACAD_REACTORS
330
AA
102
}
330
AA
100
AcDbScale
 70
     0
300
1:40
140
1.0
141
40.0
290
     0
  0
SCALE
  5
B5
102
{ACAD_REACTORS
330
AA
102
}
330
AA
100
AcDbScale
 70
     0
300
1:50
140
1.0
141
50.0
290
     0
  0
SCALE
  5
B6
102
{ACAD_REACTORS
330
AA
102
}
330
AA
100
AcDbScale
 70
     0
300
1:100
140
1.0
141
100.0
290
     0
  0
SCALE
  5
B7
102
{ACAD_REACTORS
330
AA
102
}
330
AA
100
AcDbScale
 70
     0
300
2:1
140
2.0
141
1.0
290
     0
  0
SCALE
  5
B8
102
{ACAD_REACTORS
330
AA
102
}
330
AA
100
AcDbScale
 70
     0
300
4:1
140
4.0
141
1.0
290
     0
  0
SCALE
  5
B9
102
{ACAD_REACTORS
330
AA
102
}
330
AA
100
AcDbScale
 70
     0
300
8:1
140
8.0
141
1.0
290
     0
  0
SCALE
  5
BA
102
{ACAD_REACTORS
330
AA
102
}
330
AA
100
AcDbScale
 70
     0
300
10:1
140
10.0
141
1.0
290
     0
  0
SCALE
  5
BB
102
{ACAD_REACTORS
330
AA
102
}
330
AA
100
AcDbScale
 70
     0
300
100:1
140
100.0
141
1.0
290
     0
  0
SCALE
  5
BC
102
{ACAD_REACTORS
330
AA
102
}
330
AA
100
AcDbScale
 70
     0
300
1/128" = 1'-0"
140
0.0078125
141
12.0
290
     0
  0
SCALE
  5
BD
102
{ACAD_REACTORS
330
AA
102
}
330
AA
100
AcDbScale
 70
     0
300
1/64" = 1'-0"
140
0.015625
141
12.0
290
     0
  0
SCALE
  5
BE
102
{ACAD_REACTORS
330
AA
102
}
330
AA
100
AcDbScale
 70
     0
300
1/32" = 1'-0"
140
0.03125
141
12.0
290
     0
  0
SCALE
  5
BF
102
{ACAD_REACTORS
330
AA
102
}
330
AA
100
AcDbScale
 70
     0
300
1/16" = 1'-0"
140
0.0625
141
12.0
290
     0
  0
SCALE
  5
C0
102
{ACAD_REACTORS
330
AA
102
}
330
AA
100
AcDbScale
 70
     0
300
3/32" = 1'-0"
140
0.09375
141
12.0
290
     0
  0
SCALE
  5
C1
102
{ACAD_REACTORS
330
AA
102
}
330
AA
100
AcDbScale
 70
     0
300
1/8" = 1'-0"
140
0.125
141
12.0
290
     0
  0
SCALE
  5
C2
102
{ACAD_REACTORS
330
AA
102
}
330
AA
100
AcDbScale
 70
     0
300
3/16" = 1'-0"
140
0.1875
141
12.0
290
     0
  0
SCALE
  5
C3
102
{ACAD_REACTORS
330
AA
102
}
330
AA
100
AcDbScale
 70
     0
300
1/4" = 1'-0"
140
0.25
141
12.0
290
     0
  0
SCALE
  5
C4
102
{ACAD_REACTORS
330
AA
102
}
330
AA
100
AcDbScale
 70
     0
300
3/8" = 1'-0"
140
0.375
141
12.0
290
     0
  0
SCALE
  5
C5
102
{ACAD_REACTORS
330
AA
102
}
330
AA
100
AcDbScale
 70
     0
300
1/2" = 1'-0"
140
0.5
141
12.0
290
     0
  0
SCALE
  5
C6
102
{ACAD_REACTORS
330
AA
102
}
330
AA
100
AcDbScale
 70
     0
300
3/4" = 1'-0"
140
0.75
141
12.0
290
     0
  0
SCALE
  5
C7
102
{ACAD_REACTORS
330
AA
102
}
330
AA
100
AcDbScale
 70
     0
300
1" = 1'-0"
140
1.0
141
12.0
290
     0
  0
SCALE
  5
C8
102
{ACAD_REACTORS
330
AA
102
}
330
AA
100
AcDbScale
 70
     0
300
1-1/2" = 1'-0"
140
1.5
141
12.0
290
     0
  0
SCALE
  5
C9
102
{ACAD_REACTORS
330
AA
102
}
330
AA
100
AcDbScale
 70
     0
300
3" = 1'-0"
140
3.0
141
12.0
290
     0
  0
SCALE
  5
CA
102
{ACAD_REACTORS
330
AA
102
}
330
AA
100
AcDbScale
 70
     0
300
6" = 1'-0"
140
6.0
141
12.0
290
     0
  0
SCALE
  5
CB
102
{ACAD_REACTORS
330
AA
102
}
330
AA
100
AcDbScale
 70
     0
300
1'-0" = 1'-0"
140
12.0
141
12.0
290
     0
  0
VISUALSTYLE
  5
2F
102
{ACAD_REACTORS
330
2A
102
}
330
2A
100
AcDbVisualStyle
  2
2dWireframe
 70
     4
 71
     0
 72
     2
 73
     0
 90
        0
 40
-0.6
 41
-30.0
 62
     5
 63
     7
 74
     1
 91
        4
 64
     7
 65
   257
 75
     1
175
     1
 42
1.0
 92
        0
 66
   257
 43
1.0
 76
     1
 77
     6
 78
     2
 67
     7
 79
     5
170
     0
171
     0
290
     0
174
     0
 93
        1
 44
0.0
173
     0
291
     0
 45
0.0
1001
ACAD
1000
AcDbSavedByObjectVersion
1070
     0
  0
VISUALSTYLE
  5
31
102
{ACAD_REACTORS
330
2A
102
}
330
2A
100
AcDbVisualStyle
  2
3D Hidden
 70
     6
 71
     1
 72
     2
 73
     2
 90
        0
 40
-0.6
 41
-30.0
 62
     5
 63
     7
 74
     2
 91
        2
 64
     7
 65
   257
 75
     2
175
     1
 42
40.0
 92
        0
 66
   257
 43
1.0
 76
     1
 77
     6
 78
     2
 67
     7
 79
     3
170
     0
171
     0
290
     0
174
     0
 93
        1
 44
0.0
173
     0
291
     0
 45
0.0
1001
ACAD
1000
AcDbSavedByObjectVersion
1070
     0
  0
VISUALSTYLE
  5
30
102
{ACAD_REACTORS
330
2A
102
}
330
2A
100
AcDbVisualStyle
  2
3dWireframe
 70
     5
 71
     0
 72
     2
 73
     0
 90
        0
 40
-0.6
 41
-30.0
 62
     5
 63
     7
 74
     1
 91
        4
 64
     7
 65
   257
 75
     1
175
     1
 42
1.0
 92
        0
 66
   257
 43
1.0
 76
     1
 77
     6
 78
     2
 67
     7
 79
     5
170
     0
171
     0
290
     0
174
     0
 93
        1
 44
0.0
173
     0
291
     0
 45
0.0
1001
ACAD
1000
AcDbSavedByObjectVersion
1070
     0
  0
VISUALSTYLE
  5
32
102
{ACAD_REACTORS
330
2A
102
}
330
2A
100
AcDbVisualStyle
  2
Basic
 70
     7
 71
     1
 72
     0
 73
     1
 90
        0
 40
-0.6
 41
-30.0
 62
     5
 63
     7
 74
     0
 91
        4
 64
     7
 65
   257
 75
     1
175
     1
 42
1.0
 92
        8
 66
     7
 43
1.0
 76
     1
 77
     6
 78
     2
 67
     7
 79
     5
170
     0
171
     0
290
     0
174
     0
 93
        1
 44
0.0
173
     0
291
     1
 45
0.0
1001
ACAD
1000
AcDbSavedByObjectVersion
1070
     0
  0
VISUALSTYLE
  5
36
102
{ACAD_REACTORS
330
2A
102
}
330
2A
100
AcDbVisualStyle
  2
Brighten
 70
    12
 71
     2
 72
     2
 73
     0
 90
        0
 40
-0.6
 41
-30.0
 62
     5
 63
     7
 74
     1
 91
        4
 64
     7
 65
   257
 75
     1
175
     1
 42
1.0
 92
        8
 66
     7
 43
1.0
 76
     1
 77
     6
 78
     2
 67
     7
 79
     5
170
     0
171
     0
290
     0
174
     0
 93
        1
 44
50.0
173
     0
291
     1
 45
0.0
1001
ACAD
1000
AcDbSavedByObjectVersion
1070
     0
  0
VISUALSTYLE
  5
3A
102
{ACAD_REACTORS
330
2A
102
}
330
2A
100
AcDbVisualStyle
  2
ColorChange
 70
    16
 71
     2
 72
     2
 73
     3
 90
        0
 40
-0.6
 41
-30.0
 62
     5
 63
     8
 74
     1
 91
        4
 64
     7
 65
   257
 75
     1
175
     1
 42
1.0
 92
        8
 66
     8
 43
1.0
 76
     1
 77
     6
 78
     2
 67
     7
 79
     5
170
     0
171
     0
290
     0
174
     0
 93
        1
 44
0.0
173
     0
291
     1
 45
0.0
1001
ACAD
1000
AcDbSavedByObjectVersion
1070
     0
  0
VISUALSTYLE
  5
34
102
{ACAD_REACTORS
330
2A
102
}
330
2A
100
AcDbVisualStyle
  2
Conceptual
 70
     9
 71
     3
 72
     2
 73
     0
 90
        0
 40
-0.6
 41
-30.0
 62
     5
 63
     7
 74
     2
 91
        2
 64
     7
 65
   257
 75
     1
175
     1
 42
40.0
 92
        8
 66
     7
 43
1.0
 76
     1
 77
     6
 78
     2
 67
     7
 79
     3
170
     0
171
     0
290
     0
174
     0
 93
        1
 44
0.0
173
     0
291
     0
 45
0.0
1001
ACAD
1000
AcDbSavedByObjectVersion
1070
     0
  0
VISUALSTYLE
  5
35
102
{ACAD_REACTORS
330
2A
102
}
330
2A
100
AcDbVisualStyle
  2
Dim
 70
    11
 71
     2
 72
     2
 73
     0
 90
        0
 40
-0.6
 41
-30.0
 62
     5
 63
     7
 74
     1
 91
        4
 64
     7
 65
   257
 75
     1
175
     1
 42
1.0
 92
        8
 66
     7
 43
1.0
 76
     1
 77
     6
 78
     2
 67
     7
 79
     5
170
     0
171
     0
290
     0
174
     0
 93
        1
 44
-50.0
173
     0
291
     1
 45
0.0
1001
ACAD
1000
AcDbSavedByObjectVersion
1070
     0
  0
VISUALSTYLE
  5
39
102
{ACAD_REACTORS
330
2A
102
}
330
2A
100
AcDbVisualStyle
  2
Facepattern
 70
    15
 71
     2
 72
     2
 73
     0
 90
        0
 40
-0.6
 41
-30.0
 62
     5
 63
     7
 74
     1
 91
        4
 64
     7
 65
   257
 75
     1
175
     1
 42
1.0
 92
        8
 66
     7
 43
1.0
 76
     1
 77
     6
 78
     2
 67
     7
 79
     5
170
     0
171
     0
290
     0
174
     0
 93
        1
 44
0.0
173
     0
291
     1
 45
0.0
1001
ACAD
1000
AcDbSavedByObjectVersion
1070
     0
  0
VISUALSTYLE
  5
2B
102
{ACAD_REACTORS
330
2A
102
}
330
2A
100
AcDbVisualStyle
  2
Flat
 70
     0
 71
     2
 72
     1
 73
     1
 90
        2
 40
-0.6
 41
30.0
 62
     5
 63
     7
 74
     0
 91
        4
 64
     7
 65
   257
 75
     1
175
     1
 42
1.0
 92
        8
 66
     7
 43
1.0
 76
     1
 77
     6
 78
     2
 67
     7
 79
     5
170
     0
171
     0
290
     0
174
     0
 93
       13
 44
0.0
173
     0
291
     1
 45
0.0
1001
ACAD
1000
AcDbSavedByObjectVersion
1070
     0
  0
VISUALSTYLE
  5
2C
102
{ACAD_REACTORS
330
2A
102
}
330
2A
100
AcDbVisualStyle
  2
FlatWithEdges
 70
     1
 71
     2
 72
     1
 73
     1
 90
        2
 40
-0.6
 41
30.0
 62
     5
 63
     7
 74
     1
 91
        4
 64
     7
 65
   257
 75
     1
175
     1
 42
1.0
 92
        0
 66
   257
 43
1.0
 76
     1
 77
     6
 78
     2
 67
     7
 79
     5
170
     0
171
     0
290
     0
174
     0
 93
       13
 44
0.0
173
     0
291
     1
 45
0.0
1001
ACAD
1000
AcDbSavedByObjectVersion
1070
     0
  0
VISUALSTYLE
  5
2D
102
{ACAD_REACTORS
330
2A
102
}
330
2A
100
AcDbVisualStyle
  2
Gouraud
 70
     2
 71
     2
 72
     2
 73
     1
 90
        2
 40
-0.6
 41
30.0
 62
     5
 63
     7
 74
     0
 91
        4
 64
     7
 65
   257
 75
     1
175
     1
 42
1.0
 92
        0
 66
     7
 43
1.0
 76
     1
 77
     6
 78
     2
 67
     7
 79
     5
170
     0
171
     0
290
     0
174
     0
 93
       13
 44
0.0
173
     0
291
     1
 45
0.0
1001
ACAD
1000
AcDbSavedByObjectVersion
1070
     0
  0
VISUALSTYLE
  5
2E
102
{ACAD_REACTORS
330
2A
102
}
330
2A
100
AcDbVisualStyle
  2
GouraudWithEdges
 70
     3
 71
     2
 72
     2
 73
     1
 90
        2
 40
-0.6
 41
30.0
 62
     5
 63
     7
 74
     1
 91
        4
 64
     7
 65
   257
 75
     1
175
     1
 42
1.0
 92
        0
 66
   257
 43
1.0
 76
     1
 77
     6
 78
     2
 67
     7
 79
     5
170
     0
171
     0
290
     0
174
     0
 93
       13
 44
0.0
173
     0
291
     1
 45
0.0
1001
ACAD
1000
AcDbSavedByObjectVersion
1070
     0
  0
VISUALSTYLE
  5
38
102
{ACAD_REACTORS
330
2A
102
}
330
2A
100
AcDbVisualStyle
  2
Linepattern
 70
    14
 71
     2
 72
     2
 73
     0
 90
        0
 40
-0.6
 41
-30.0
 62
     5
 63
     7
 74
     1
 91
        4
 64
     7
 65
   257
 75
     7
175
     7
 42
1.0
 92
        8
 66
     7
 43
1.0
 76
     1
 77
     6
 78
     2
 67
     7
 79
     5
170
     0
171
     0
290
     0
174
     0
 93
        1
 44
0.0
173
     0
291
     1
 45
0.0
1001
ACAD
1000
AcDbSavedByObjectVersion
1070
     0
  0
VISUALSTYLE
  5
33
102
{ACAD_REACTORS
330
2A
102
}
330
2A
100
AcDbVisualStyle
  2
Realistic
 70
     8
 71
     2
 72
     2
 73
     0
 90
        0
 40
-0.6
 41
-30.0
 62
     5
 63
     7
 74
     1
 91
        0
 64
     7
 65
   257
 75
     1
175
     1
 42
1.0
 92
        8
 66
     8
 43
1.0
 76
     1
 77
     6
 78
     2
 67
     7
 79
     5
170
     0
171
     0
290
     0
174
     0
 93
       13
 44
0.0
173
     0
291
     0
 45
0.0
1001
ACAD
1000
AcDbSavedByObjectVersion
1070
     0
  0
VISUALSTYLE
  5
37
102
{ACAD_REACTORS
330
2A
102
}
330
2A
100
AcDbVisualStyle
  2
Thicken
 70
    13
 71
     2
 72
     2
 73
     0
 90
        0
 40
-0.6
 41
-30.0
 62
     5
 63
     7
 74
     1
 91
        4
 64
     7
 65
   257
 75
     1
175
     1
 42
1.0
 92
       12
 66
     7
 43
1.0
 76
     1
 77
     6
 78
     2
 67
     7
 79
     5
170
     0
171
     0
290
     0
174
     0
 93
        1
 44
0.0
173
     0
291
     1
 45
0.0
1001
ACAD
1000
AcDbSavedByObjectVersion
1070
     0
  0
DICTIONARYVAR
  5
423
102
{ACAD_REACTORS
330
420
102
}
330
420
100
DictionaryVariables
280
     0
  1
1:1
  0
ENDSEC
  0
EOF
